  0
SECTION
  2
HEADER
  9
$ACADVER
  1
AC1014
  9
$ACADMAINTVER
 70
     9
  9
$DWGCODEPAGE
  3
ANSI_1250
  9
$INSBASE
 10
0.0
 20
0.0
 30
0.0
  9
$EXTMIN
 10
-313.2354161428573
 20
-994.704519
 30
0.0
  9
$EXTMAX
 10
1170.558051
 20
256.5086902307701
 30
0.0
  9
$LIMMIN
 10
0.0
 20
0.0
  9
$LIMMAX
 10
0.0
 20
0.0
  9
$ORTHOMODE
 70
     1
  9
$REGENMODE
 70
     1
  9
$FILLMODE
 70
     1
  9
$QTEXTMODE
 70
     0
  9
$MIRRTEXT
 70
     1
  9
$DRAGMODE
 70
     2
  9
$LTSCALE
 40
1.0
  9
$OSMODE
 70
    37
  9
$ATTMODE
 70
     1
  9
$TEXTSIZE
 40
0.2
  9
$TRACEWID
 40
0.05
  9
$TEXTSTYLE
  7
ED20
  9
$CLAYER
  8
V0-OBRYS
  9
$CELTYPE
  6
CONTINUOUS
  9
$CECOLOR
 62
    90
  9
$CELTSCALE
 40
1.0
  9
$DELOBJ
 70
     1
  9
$DISPSILH
 70
     0
  9
$DIMSCALE
 40
1.0
  9
$DIMASZ
 40
20.0
  9
$DIMEXO
 40
1.0
  9
$DIMDLI
 40
0.38
  9
$DIMRND
 40
0.0
  9
$DIMDLE
 40
0.0
  9
$DIMEXE
 40
1.25
  9
$DIMTP
 40
0.0
  9
$DIMTM
 40
0.0
  9
$DIMTXT
 40
20.0
  9
$DIMCEN
 40
0.09
  9
$DIMTSZ
 40
0.0
  9
$DIMTOL
 70
     0
  9
$DIMLIM
 70
     0
  9
$DIMTIH
 70
     0
  9
$DIMTOH
 70
     0
  9
$DIMSE1
 70
     0
  9
$DIMSE2
 70
     0
  9
$DIMTAD
 70
     1
  9
$DIMZIN
 70
     0
  9
$DIMBLK
  1
OPEN
  9
$DIMASO
 70
     1
  9
$DIMSHO
 70
     1
  9
$DIMPOST
  1

  9
$DIMAPOST
  1

  9
$DIMALT
 70
     0
  9
$DIMALTD
 70
     2
  9
$DIMALTF
 40
25.4
  9
$DIMLFAC
 40
1.0
  9
$DIMTOFL
 70
     1
  9
$DIMTVP
 40
0.0
  9
$DIMTIX
 70
     1
  9
$DIMSOXD
 70
     0
  9
$DIMSAH
 70
     0
  9
$DIMBLK1
  1

  9
$DIMBLK2
  1

  9
$DIMSTYLE
  2
ED20
  9
$DIMCLRD
 70
     0
  9
$DIMCLRE
 70
     0
  9
$DIMCLRT
 70
     0
  9
$DIMTFAC
 40
1.0
  9
$DIMGAP
 40
1.5
  9
$DIMJUST
 70
     0
  9
$DIMSD1
 70
     0
  9
$DIMSD2
 70
     0
  9
$DIMTOLJ
 70
     1
  9
$DIMTZIN
 70
     0
  9
$DIMALTZ
 70
     0
  9
$DIMALTTZ
 70
     0
  9
$DIMFIT
 70
     3
  9
$DIMUPT
 70
     1
  9
$DIMUNIT
 70
     2
  9
$DIMDEC
 70
     0
  9
$DIMTDEC
 70
     4
  9
$DIMALTU
 70
     2
  9
$DIMALTTD
 70
     2
  9
$DIMTXSTY
  7
ED20
  9
$DIMAUNIT
 70
     0
  9
$LUNITS
 70
     2
  9
$LUPREC
 70
     4
  9
$SKETCHINC
 40
0.1
  9
$FILLETRAD
 40
0.5
  9
$AUNITS
 70
     0
  9
$AUPREC
 70
     0
  9
$MENU
  1
.
  9
$ELEVATION
 40
0.0
  9
$PELEVATION
 40
0.0
  9
$THICKNESS
 40
0.0
  9
$LIMCHECK
 70
     0
  9
$BLIPMODE
 70
     0
  9
$CHAMFERA
 40
0.5
  9
$CHAMFERB
 40
0.5
  9
$CHAMFERC
 40
1.0
  9
$CHAMFERD
 40
0.0
  9
$SKPOLY
 70
     0
  9
$TDCREATE
 40
2455644.646943715
  9
$TDUPDATE
 40
2455644.646943727
  9
$TDINDWG
 40
0.0000000116
  9
$TDUSRTIMER
 40
0.0000000116
  9
$USRTIMER
 70
     1
  9
$ANGBASE
 50
0.0
  9
$ANGDIR
 70
     0
  9
$PDMODE
 70
     3
  9
$PDSIZE
 40
20.0
  9
$PLINEWID
 40
0.0
  9
$COORDS
 70
     1
  9
$SPLFRAME
 70
     0
  9
$SPLINETYPE
 70
     6
  9
$SPLINESEGS
 70
     8
  9
$ATTDIA
 70
     0
  9
$ATTREQ
 70
     1
  9
$HANDLING
 70
     1
  9
$HANDSEED
  5
19BC
  9
$SURFTAB1
 70
     6
  9
$SURFTAB2
 70
     6
  9
$SURFTYPE
 70
     6
  9
$SURFU
 70
     6
  9
$SURFV
 70
     6
  9
$UCSNAME
  2

  9
$UCSORG
 10
0.0
 20
0.0
 30
0.0
  9
$UCSXDIR
 10
1.0
 20
0.0
 30
0.0
  9
$UCSYDIR
 10
0.0
 20
1.0
 30
0.0
  9
$PUCSNAME
  2

  9
$PUCSORG
 10
0.0
 20
0.0
 30
0.0
  9
$PUCSXDIR
 10
1.0
 20
0.0
 30
0.0
  9
$PUCSYDIR
 10
0.0
 20
1.0
 30
0.0
  9
$USERI1
 70
     0
  9
$USERI2
 70
     0
  9
$USERI3
 70
     0
  9
$USERI4
 70
     0
  9
$USERI5
 70
     0
  9
$USERR1
 40
0.0
  9
$USERR2
 40
0.0
  9
$USERR3
 40
0.0
  9
$USERR4
 40
0.0
  9
$USERR5
 40
0.0
  9
$WORLDVIEW
 70
     1
  9
$SHADEDGE
 70
     3
  9
$SHADEDIF
 70
    70
  9
$TILEMODE
 70
     1
  9
$MAXACTVP
 70
    64
  9
$PINSBASE
 10
0.0
 20
0.0
 30
0.0
  9
$PLIMCHECK
 70
     0
  9
$PEXTMIN
 10
1.000000000000000E+20
 20
1.000000000000000E+20
 30
1.000000000000000E+20
  9
$PEXTMAX
 10
-1.000000000000000E+20
 20
-1.000000000000000E+20
 30
-1.000000000000000E+20
  9
$PLIMMIN
 10
0.0
 20
0.0
  9
$PLIMMAX
 10
0.0
 20
0.0
  9
$UNITMODE
 70
     0
  9
$VISRETAIN
 70
     1
  9
$PLINEGEN
 70
     0
  9
$PSLTSCALE
 70
     1
  9
$TREEDEPTH
 70
  3020
  9
$PICKSTYLE
 70
     1
  9
$CMLSTYLE
  2
STANDARD
  9
$CMLJUST
 70
     0
  9
$CMLSCALE
 40
1.0
  9
$PROXYGRAPHICS
 70
     1
  9
$MEASUREMENT
 70
     0
  0
ENDSEC
  0
SECTION
  2
CLASSES
  0
CLASS
  1
ACDBDICTIONARYWDFLT
  2
AcDbDictionaryWithDefault
  3
ObjectDBX Classes
 90
        0
280
     0
281
     0
  0
CLASS
  1
XRECORD
  2
AcDbXrecord
  3
AutoCAD 2000
 90
        0
280
     0
281
     0
  0
CLASS
  1
LWPOLYLINE
  2
AcDbPolyline
  3
AutoCAD 2000
 90
        0
280
     0
281
     1
  0
CLASS
  1
HATCH
  2
AcDbHatch
  3
AutoCAD 2000
 90
        0
280
     0
281
     1
  0
CLASS
  1
ACDBPLACEHOLDER
  2
AcDbPlaceHolder
  3
ObjectDBX Classes
 90
        0
280
     0
281
     0
  0
CLASS
  1
LAYOUT
  2
AcDbLayout
  3
ObjectDBX Classes
 90
        0
280
     0
281
     0
  0
ENDSEC
  0
SECTION
  2
TABLES
  0
TABLE
  2
VPORT
  5
190F
330
0
100
AcDbSymbolTable
 70
     2
  0
VPORT
  5
1930
102
{ACAD_XDICTIONARY
360
19BA
102
}
330
190F
100
AcDbSymbolTableRecord
100
AcDbViewportTableRecord
  2
*ACTIVE
 70
     0
 10
0.0
 20
0.0
 11
1.0
 21
1.0
 12
513.099768
 22
-342.507728
 13
0.0
 23
0.0
 14
10.0
 24
10.0
 15
10.0
 25
10.0
 16
0.0
 26
0.0
 36
1.0
 17
0.0
 27
0.0
 37
0.0
 40
1342.117445
 41
0.0132304045534949
 42
50.0
 43
0.0
 44
0.0
 50
0.0
 51
0.0000000000007958
 71
     0
 72
   100
 73
     1
 74
     3
 75
     0
 76
     0
 77
     0
 78
     0
  0
ENDTAB
  0
TABLE
  2
LTYPE
  5
190C
330
0
100
AcDbSymbolTable
 70
    25
  0
LTYPE
  5
191B
330
190C
100
AcDbSymbolTableRecord
100
AcDbLinetypeTableRecord
  2
BYBLOCK
 70
     0
  3

 72
    65
 73
     0
 40
0.0
  0
LTYPE
  5
191C
330
190C
100
AcDbSymbolTableRecord
100
AcDbLinetypeTableRecord
  2
BYLAYER
 70
     0
  3

 72
    65
 73
     0
 40
0.0
  0
LTYPE
  5
191D
330
190C
100
AcDbSymbolTableRecord
100
AcDbLinetypeTableRecord
  2
CONTINUOUS
 70
     0
  3
Solid line
 72
    65
 73
     0
 40
0.0
  0
LTYPE
  5
1938
330
190C
100
AcDbSymbolTableRecord
100
AcDbLinetypeTableRecord
  2
CENTER
 70
     0
  3
Center ____ _ ____ _ ____ _ ____ _ ____ _ ____
 72
    65
 73
     4
 40
2.0
 49
1.25
 74
     0
 49
-0.25
 74
     0
 49
0.25
 74
     0
 49
-0.25
 74
     0
  0
LTYPE
  5
1939
330
190C
100
AcDbSymbolTableRecord
100
AcDbLinetypeTableRecord
  2
DASHDOT
 70
     0
  3
Dashdot __ . __ . __ . __ . __ . __ . __ . __
 72
    65
 73
     4
 40
1.0
 49
0.5
 74
     0
 49
-0.25
 74
     0
 49
0.0
 74
     0
 49
-0.25
 74
     0
  0
LTYPE
  5
193A
330
190C
100
AcDbSymbolTableRecord
100
AcDbLinetypeTableRecord
  2
DASHED
 70
     0
  3
Dashed __ __ __ __ __ __ __ __ __ __ __ __ __ _
 72
    65
 73
     2
 40
0.75
 49
0.5
 74
     0
 49
-0.25
 74
     0
  0
LTYPE
  5
193B
330
190C
100
AcDbSymbolTableRecord
100
AcDbLinetypeTableRecord
  2
HIDDEN
 70
     0
  3
Hidden __ __ __ __ __ __ __ __ __ __ __ __ __ __
 72
    65
 73
     2
 40
0.375
 49
0.25
 74
     0
 49
-0.125
 74
     0
  0
LTYPE
  5
193C
330
190C
100
AcDbSymbolTableRecord
100
AcDbLinetypeTableRecord
  2
HIDDEN2
 70
     0
  3
Hidden2 _ _ _ _ _ _ _ _ _ _ _ _ _ _ _ _ _ 
 72
    65
 73
     2
 40
0.1875
 49
0.125
 74
     0
 49
-0.0625
 74
     0
  0
LTYPE
  5
193D
330
190C
100
AcDbSymbolTableRecord
100
AcDbLinetypeTableRecord
  2
BORDER
 70
     0
  3
Border __ __ . __ __ . __ __ . __ __ . __ __ .
 72
    65
 73
     6
 40
1.75
 49
0.5
 74
     0
 49
-0.25
 74
     0
 49
0.5
 74
     0
 49
-0.25
 74
     0
 49
0.0
 74
     0
 49
-0.25
 74
     0
  0
LTYPE
  5
193E
330
190C
100
AcDbSymbolTableRecord
100
AcDbLinetypeTableRecord
  2
BORDER2
 70
     0
  3
Border2 __.__.__.__.__.__.__.__.__.__.__.
 72
    65
 73
     6
 40
0.875
 49
0.25
 74
     0
 49
-0.125
 74
     0
 49
0.25
 74
     0
 49
-0.125
 74
     0
 49
0.0
 74
     0
 49
-0.125
 74
     0
  0
LTYPE
  5
193F
330
190C
100
AcDbSymbolTableRecord
100
AcDbLinetypeTableRecord
  2
BORDERX2
 70
     0
  3
Borderx2  ____  ____  .  ____  ____  .  ___
 72
    65
 73
     6
 40
3.5
 49
1.0
 74
     0
 49
-0.5
 74
     0
 49
1.0
 74
     0
 49
-0.5
 74
     0
 49
0.0
 74
     0
 49
-0.5
 74
     0
  0
LTYPE
  5
1940
330
190C
100
AcDbSymbolTableRecord
100
AcDbLinetypeTableRecord
  2
CENTER2
 70
     0
  3
Center2  ___ _ ___ _ ___ _ ___ _ ___ _ ___
 72
    65
 73
     4
 40
1.125
 49
0.75
 74
     0
 49
-0.125
 74
     0
 49
0.125
 74
     0
 49
-0.125
 74
     0
  0
LTYPE
  5
1941
330
190C
100
AcDbSymbolTableRecord
100
AcDbLinetypeTableRecord
  2
CENTERX2
 70
     0
  3
Centerx2  ________  __  ________  __  _____
 72
    65
 73
     4
 40
4.0
 49
2.5
 74
     0
 49
-0.5
 74
     0
 49
0.5
 74
     0
 49
-0.5
 74
     0
  0
LTYPE
  5
1942
330
190C
100
AcDbSymbolTableRecord
100
AcDbLinetypeTableRecord
  2
DASHDOT2
 70
     0
  3
Dashdot2  _._._._._._._._._._._._._._._.
 72
    65
 73
     4
 40
0.5
 49
0.25
 74
     0
 49
-0.125
 74
     0
 49
0.0
 74
     0
 49
-0.125
 74
     0
  0
LTYPE
  5
1943
330
190C
100
AcDbSymbolTableRecord
100
AcDbLinetypeTableRecord
  2
DASHDOTX2
 70
     0
  3
Dashdotx2 ____  .  ____  .  ____  .  ___
 72
    65
 73
     4
 40
2.0
 49
1.0
 74
     0
 49
-0.5
 74
     0
 49
0.0
 74
     0
 49
-0.5
 74
     0
  0
LTYPE
  5
1944
330
190C
100
AcDbSymbolTableRecord
100
AcDbLinetypeTableRecord
  2
DASHED2
 70
     0
  3
Dashed2 _ _ _ _ _ _ _ _ _ _ _ _ _ _ _ _ _ 
 72
    65
 73
     2
 40
0.375
 49
0.25
 74
     0
 49
-0.125
 74
     0
  0
LTYPE
  5
1945
330
190C
100
AcDbSymbolTableRecord
100
AcDbLinetypeTableRecord
  2
DASHEDX2
 70
     0
  3
Dashedx2 ____  ____  ____  ____  ____  ___
 72
    65
 73
     2
 40
1.5
 49
1.0
 74
     0
 49
-0.5
 74
     0
  0
LTYPE
  5
1946
330
190C
100
AcDbSymbolTableRecord
100
AcDbLinetypeTableRecord
  2
DIVIDE
 70
     0
  3
Divide ____ . . ____ . . ____ . . ____ . . ____
 72
    65
 73
     6
 40
1.25
 49
0.5
 74
     0
 49
-0.25
 74
     0
 49
0.0
 74
     0
 49
-0.25
 74
     0
 49
0.0
 74
     0
 49
-0.25
 74
     0
  0
LTYPE
  5
1947
330
190C
100
AcDbSymbolTableRecord
100
AcDbLinetypeTableRecord
  2
DIVIDE2
 70
     0
  3
Divide2 __..__..__..__..__..__..__..__.._
 72
    65
 73
     6
 40
0.625
 49
0.25
 74
     0
 49
-0.125
 74
     0
 49
0.0
 74
     0
 49
-0.125
 74
     0
 49
0.0
 74
     0
 49
-0.125
 74
     0
  0
LTYPE
  5
1948
330
190C
100
AcDbSymbolTableRecord
100
AcDbLinetypeTableRecord
  2
DIVIDEX2
 70
     0
  3
Dividex2 ________  .  .  ________  .  .  _
 72
    65
 73
     6
 40
2.5
 49
1.0
 74
     0
 49
-0.5
 74
     0
 49
0.0
 74
     0
 49
-0.5
 74
     0
 49
0.0
 74
     0
 49
-0.5
 74
     0
  0
LTYPE
  5
1949
330
190C
100
AcDbSymbolTableRecord
100
AcDbLinetypeTableRecord
  2
DOT
 70
     0
  3
Dot . . . . . . . . . . . . . . . . . . . . . . . .
 72
    65
 73
     2
 40
0.25
 49
0.0
 74
     0
 49
-0.25
 74
     0
  0
LTYPE
  5
194A
330
190C
100
AcDbSymbolTableRecord
100
AcDbLinetypeTableRecord
  2
DOT2
 70
     0
  3
Dot2 ........................................
 72
    65
 73
     2
 40
0.125
 49
0.0
 74
     0
 49
-0.125
 74
     0
  0
LTYPE
  5
194B
330
190C
100
AcDbSymbolTableRecord
100
AcDbLinetypeTableRecord
  2
DOTX2
 70
     0
  3
Dotx2 .  .  .  .  .  .  .  .  .  .  .  .  .  .
 72
    65
 73
     2
 40
0.5
 49
0.0
 74
     0
 49
-0.5
 74
     0
  0
LTYPE
  5
194C
330
190C
100
AcDbSymbolTableRecord
100
AcDbLinetypeTableRecord
  2
HIDDENX2
 70
     0
  3
Hiddenx2 ____ ____ ____ ____ ____ ____ ____ 
 72
    65
 73
     2
 40
0.75
 49
0.5
 74
     0
 49
-0.25
 74
     0
  0
LTYPE
  5
194D
330
190C
100
AcDbSymbolTableRecord
100
AcDbLinetypeTableRecord
  2
PHANTOM
 70
     0
  3
Phantom ______  __  __  ______  __  __  ______ 
 72
    65
 73
     6
 40
2.5
 49
1.25
 74
     0
 49
-0.25
 74
     0
 49
0.25
 74
     0
 49
-0.25
 74
     0
 49
0.25
 74
     0
 49
-0.25
 74
     0
  0
LTYPE
  5
194E
330
190C
100
AcDbSymbolTableRecord
100
AcDbLinetypeTableRecord
  2
PHANTOM2
 70
     0
  3
Phantom2 ___ _ _ ___ _ _ ___ _ _ ___ _ _
 72
    65
 73
     6
 40
1.25
 49
0.625
 74
     0
 49
-0.125
 74
     0
 49
0.125
 74
     0
 49
-0.125
 74
     0
 49
0.125
 74
     0
 49
-0.125
 74
     0
  0
LTYPE
  5
194F
330
190C
100
AcDbSymbolTableRecord
100
AcDbLinetypeTableRecord
  2
PHANTOMX2
 70
     0
  3
Phantomx2 ____________    ____    ____   _
 72
    65
 73
     6
 40
5.0
 49
2.5
 74
     0
 49
-0.5
 74
     0
 49
0.5
 74
     0
 49
-0.5
 74
     0
 49
0.5
 74
     0
 49
-0.5
 74
     0
  0
ENDTAB
  0
TABLE
  2
LAYER
  5
1909
330
0
100
AcDbSymbolTable
 70
     6
  0
LAYER
  5
1917
330
1909
100
AcDbSymbolTableRecord
100
AcDbLayerTableRecord
  2
0
 70
     0
 62
     7
  6
CONTINUOUS
  0
LAYER
  5
9E
330
1909
100
AcDbSymbolTableRecord
100
AcDbLayerTableRecord
  2
DEFPOINTS
 70
     0
 62
     7
  6
CONTINUOUS
  0
LAYER
  5
377
330
1909
100
AcDbSymbolTableRecord
100
AcDbLayerTableRecord
  2
V0-OBRYS
 70
     0
 62
    90
  6
CONTINUOUS
  0
LAYER
  5
378
330
1909
100
AcDbSymbolTableRecord
100
AcDbLayerTableRecord
  2
V0-VYPLNE
 70
     0
 62
    63
  6
DASHDOT
  0
LAYER
  5
37A
330
1909
100
AcDbSymbolTableRecord
100
AcDbLayerTableRecord
  2
V0-NAZVY
 70
     0
 62
   210
  6
CONTINUOUS
  0
LAYER
  5
559
330
1909
100
AcDbSymbolTableRecord
100
AcDbLayerTableRecord
  2
V0-ZBYTEK
 70
     0
 62
    51
  6
CONTINUOUS
  0
ENDTAB
  0
TABLE
  2
STYLE
  5
190A
330
0
100
AcDbSymbolTable
 70
     5
  0
STYLE
  5
1918
330
190A
100
AcDbSymbolTableRecord
100
AcDbTextStyleTableRecord
  2
STANDARD
 70
     0
 40
0.0
 41
1.0
 50
0.0
 71
     0
 42
0.2
  3
ISOCP.shx
  4

1001
ACAD
1000
ISOCP.shx
1071
        0
  0
STYLE
  5
331
330
190A
100
AcDbSymbolTableRecord
100
AcDbTextStyleTableRecord
  2
ED20
 70
     0
 40
25.0
 41
1.0
 50
0.0
 71
     0
 42
0.2
  3
ISOCP.shx
  4

1001
ACAD
1000
ISOCP.shx
1071
        0
  0
STYLE
  5
648
330
190A
100
AcDbSymbolTableRecord
100
AcDbTextStyleTableRecord
  2
ED10
 70
     0
 40
10.0
 41
1.0
 50
0.0
 71
     0
 42
0.2
  3
ISOCP.shx
  4

1001
ACAD
1000
ISOCP.shx
1071
        0
  0
STYLE
  5
F38
330
190A
100
AcDbSymbolTableRecord
100
AcDbTextStyleTableRecord
  2
ED30
 70
     0
 40
30.0
 41
1.0
 50
0.0
 71
     0
 42
0.2
  3
ISOCP.shx
  4

1001
ACAD
1000
ISOCP.shx
1071
        0
  0
STYLE
  5
F39
330
190A
100
AcDbSymbolTableRecord
100
AcDbTextStyleTableRecord
  2
ED40
 70
     0
 40
40.0
 41
1.0
 50
0.0
 71
     0
 42
0.2
  3
ISOCP.shx
  4

1001
ACAD
1000
ISOCP.shx
1071
        0
  0
ENDTAB
  0
TABLE
  2
VIEW
  5
190D
330
0
100
AcDbSymbolTable
 70
     0
  0
ENDTAB
  0
TABLE
  2
UCS
  5
190E
330
0
100
AcDbSymbolTable
 70
     0
  0
ENDTAB
  0
TABLE
  2
APPID
  5
1910
330
0
100
AcDbSymbolTable
 70
     6
  0
APPID
  5
1919
330
1910
100
AcDbSymbolTableRecord
100
AcDbRegAppTableRecord
  2
ACAD
 70
     0
  0
APPID
  5
1931
330
1910
100
AcDbSymbolTableRecord
100
AcDbRegAppTableRecord
  2
VD_INVISIBLE_NOT_FOR_READ
 70
     0
  0
APPID
  5
1932
330
1910
100
AcDbSymbolTableRecord
100
AcDbRegAppTableRecord
  2
VD_TEMPHATCH
 70
     0
  0
APPID
  5
1933
330
1910
100
AcDbSymbolTableRecord
100
AcDbRegAppTableRecord
  2
VDEXTRAPARAM
 70
     0
  0
APPID
  5
1934
330
1910
100
AcDbSymbolTableRecord
100
AcDbRegAppTableRecord
  2
PE_URL
 70
     0
  0
APPID
  5
1935
330
1910
100
AcDbSymbolTableRecord
100
AcDbRegAppTableRecord
  2
VD_UNKNOWN
 70
     0
  0
ENDTAB
  0
TABLE
  2
DIMSTYLE
  5
1911
330
0
100
AcDbSymbolTable
 70
     5
  0
DIMSTYLE
105
192E
330
1911
100
AcDbSymbolTableRecord
100
AcDbDimStyleTableRecord
  2
STANDARD
 70
     0
  3

  4

  5
OPEN
  6

  7

 40
1.0
 41
15.0
 42
0.625
 43
0.38
 44
1.25
 45
0.0
 46
0.0
 47
0.0
 48
0.0
140
15.0
141
0.09
142
0.0
143
25.4
144
1.0
145
0.0
146
1.0
147
3.0
 71
     0
 72
     0
 73
     0
 74
     0
 75
     0
 76
     0
 77
     1
 78
     0
170
     0
171
     2
172
     1
173
     0
174
     1
175
     0
176
     0
177
     0
178
     0
270
     2
271
     0
272
     4
273
     2
274
     2
340
331
275
     0
280
     0
281
     0
282
     0
283
     1
284
     0
285
     0
286
     0
287
     3
288
     1
  0
DIMSTYLE
105
397
330
1911
100
AcDbSymbolTableRecord
100
AcDbDimStyleTableRecord
  2
ED40
 70
     0
  3

  4

  5
OPEN
  6

  7

 40
1.0
 41
35.0
 42
1.0
 43
0.38
 44
1.25
 45
0.0
 46
0.0
 47
0.0
 48
0.0
140
40.0
141
0.09
142
0.0
143
25.4
144
1.0
145
0.0
146
1.0
147
4.0
 71
     0
 72
     0
 73
     0
 74
     0
 75
     0
 76
     0
 77
     1
 78
     0
170
     0
171
     2
172
     1
173
     0
174
     1
175
     0
176
     0
177
     0
178
     0
270
     2
271
     0
272
     4
273
     2
274
     2
340
F39
275
     0
280
     0
281
     0
282
     0
283
     1
284
     0
285
     0
286
     0
287
     3
288
     1
  0
DIMSTYLE
105
FEA
330
1911
100
AcDbSymbolTableRecord
100
AcDbDimStyleTableRecord
  2
ED30
 70
     0
  3

  4

  5
OPEN
  6

  7

 40
1.0
 41
25.0
 42
1.0
 43
0.38
 44
1.25
 45
0.0
 46
0.0
 47
0.0
 48
0.0
140
30.0
141
0.09
142
0.0
143
25.4
144
1.0
145
0.0
146
1.0
147
4.0
 71
     0
 72
     0
 73
     0
 74
     0
 75
     0
 76
     0
 77
     1
 78
     0
170
     0
171
     2
172
     1
173
     0
174
     1
175
     0
176
     0
177
     0
178
     0
270
     2
271
     0
272
     4
273
     2
274
     2
340
F38
275
     0
280
     0
281
     0
282
     0
283
     1
284
     0
285
     0
286
     0
287
     3
288
     1
  0
DIMSTYLE
105
1457
102
{ACAD_REACTORS
330
1469
330
1476
330
1483
330
17E8
330
1802
102
}
330
1911
100
AcDbSymbolTableRecord
100
AcDbDimStyleTableRecord
  2
ED20
 70
     0
  3

  4

  5
OPEN
  6

  7

 40
1.0
 41
20.0
 42
1.0
 43
0.38
 44
1.25
 45
0.0
 46
0.0
 47
0.0
 48
0.0
140
20.0
141
0.09
142
0.0
143
25.4
144
1.0
145
0.0
146
1.0
147
1.5
 71
     0
 72
     0
 73
     0
 74
     0
 75
     0
 76
     0
 77
     1
 78
     0
170
     0
171
     2
172
     1
173
     0
174
     1
175
     0
176
     0
177
     0
178
     0
270
     2
271
     0
272
     4
273
     2
274
     2
340
331
275
     0
280
     0
281
     0
282
     0
283
     1
284
     0
285
     0
286
     0
287
     3
288
     1
  0
DIMSTYLE
105
1458
330
1911
100
AcDbSymbolTableRecord
100
AcDbDimStyleTableRecord
  2
ED10
 70
     0
  3

  4

  5
OPEN
  6

  7

 40
1.0
 41
15.0
 42
1.0
 43
0.38
 44
1.25
 45
0.0
 46
0.0
 47
0.0
 48
0.0
140
10.0
141
0.09
142
0.0
143
25.4
144
1.0
145
0.0
146
1.0
147
1.5
 71
     0
 72
     0
 73
     0
 74
     0
 75
     0
 76
     0
 77
     1
 78
     0
170
     0
171
     2
172
     1
173
     0
174
     1
175
     0
176
     0
177
     0
178
     0
270
     2
271
     0
272
     4
273
     2
274
     2
340
331
275
     0
280
     0
281
     0
282
     0
283
     1
284
     0
285
     0
286
     0
287
     3
288
     1
  0
ENDTAB
  0
TABLE
  2
BLOCK_RECORD
  5
1908
330
0
100
AcDbSymbolTable
 70
    10
  0
BLOCK_RECORD
  5
1926
330
1908
100
AcDbSymbolTableRecord
100
AcDbBlockTableRecord
  2
*MODEL_SPACE
  0
BLOCK_RECORD
  5
1922
330
1908
100
AcDbSymbolTableRecord
100
AcDbBlockTableRecord
  2
*PAPER_SPACE
  0
BLOCK_RECORD
  5
90
330
1908
100
AcDbSymbolTableRecord
100
AcDbBlockTableRecord
  2
_OPEN
  0
BLOCK_RECORD
  5
1459
330
1908
100
AcDbSymbolTableRecord
100
AcDbBlockTableRecord
  2
A10_100
  0
BLOCK_RECORD
  5
1904
330
1908
100
AcDbSymbolTableRecord
100
AcDbBlockTableRecord
  2
VDDIM_DEFAULT
  0
BLOCK_RECORD
  5
1906
330
1908
100
AcDbSymbolTableRecord
100
AcDbBlockTableRecord
  2
VDDIM_NONE
  0
BLOCK_RECORD
  5
1959
330
1908
100
AcDbSymbolTableRecord
100
AcDbBlockTableRecord
  2
*D5
  0
BLOCK_RECORD
  5
1965
330
1908
100
AcDbSymbolTableRecord
100
AcDbBlockTableRecord
  2
*D6
  0
BLOCK_RECORD
  5
1972
330
1908
100
AcDbSymbolTableRecord
100
AcDbBlockTableRecord
  2
*D7
  0
BLOCK_RECORD
  5
197F
330
1908
100
AcDbSymbolTableRecord
100
AcDbBlockTableRecord
  2
*D8
  0
BLOCK_RECORD
  5
198B
330
1908
100
AcDbSymbolTableRecord
100
AcDbBlockTableRecord
  2
*D9
  0
ENDTAB
  0
ENDSEC
  0
SECTION
  2
BLOCKS
  0
BLOCK
  5
1927
330
1926
100
AcDbEntity
  8
0
100
AcDbBlockBegin
  2
*MODEL_SPACE
 70
     0
 71
     0
 10
0.0
 20
0.0
 30
0.0
  3
*MODEL_SPACE
  1

  0
ENDBLK
  5
1928
330
1926
100
AcDbEntity
  8
0
100
AcDbBlockEnd
  0
BLOCK
  5
1923
330
1922
100
AcDbEntity
 67
     1
  8
0
100
AcDbBlockBegin
  2
*PAPER_SPACE
 70
     0
 71
     0
 10
0.0
 20
0.0
 30
0.0
  3
*PAPER_SPACE
  1

  0
ENDBLK
  5
1924
330
1922
100
AcDbEntity
 67
     1
  8
0
100
AcDbBlockEnd
  0
BLOCK
  5
1950
330
90
100
AcDbEntity
  8
0
100
AcDbBlockBegin
  2
_OPEN
 70
     0
 71
     0
 10
0.0
 20
0.0
 30
0.0
  3
_OPEN
  1

  0
LINE
  5
92
330
90
100
AcDbEntity
  8
0
  6
BYBLOCK
 62
     0
100
AcDbLine
 10
-1.0
 20
0.166667
 30
0.0
 11
0.0
 21
0.0
 31
0.0
  0
LINE
  5
93
330
90
100
AcDbEntity
  8
0
  6
BYBLOCK
 62
     0
100
AcDbLine
 10
0.0
 20
0.0
 30
0.0
 11
-1.0
 21
-0.166667
 31
0.0
  0
LINE
  5
94
330
90
100
AcDbEntity
  8
0
  6
BYBLOCK
 62
     0
100
AcDbLine
 10
0.0
 20
0.0
 30
0.0
 11
-1.0
 21
0.0
 31
0.0
  0
ENDBLK
  5
1951
330
90
100
AcDbEntity
  8
0
100
AcDbBlockEnd
  0
BLOCK
  5
1952
330
1459
100
AcDbEntity
  8
0
100
AcDbBlockBegin
  2
A10_100
 70
     0
 71
     0
 10
0.0
 20
0.0
 30
0.0
  3
A10_100
  1

  0
ENDBLK
  5
1953
330
1459
100
AcDbEntity
  8
0
100
AcDbBlockEnd
  0
BLOCK
  5
1954
330
1904
100
AcDbEntity
  8
0
100
AcDbBlockBegin
  2
VDDIM_DEFAULT
 70
     0
 71
     0
 10
0.0
 20
0.0
 30
0.0
  3
VDDIM_DEFAULT
  1

  0
LWPOLYLINE
  5
1905
330
1904
100
AcDbEntity
  8
0
  6
CONTINUOUS
 62
     0
100
AcDbPolyline
 90
        4
 70
     0
 43
0.0
 10
0.0
 20
0.0
 10
-1.0
 20
-0.1665
 10
-1.0
 20
0.1665
 10
0.0
 20
0.0
1001
VDEXTRAPARAM
1071
        1
1071
        0
1071
        0
1040
1.0
1000

1000

1040
0.0
1040
0.0
  0
HATCH
  5
1958
330
1904
100
AcDbEntity
  8
0
  6
CONTINUOUS
 62
     0
100
AcDbHatch
 10
0.0
 20
0.0
 30
0.0
210
0.0
220
0.0
230
1.0
  2
SOLID
 70
     1
 71
     0
 91
        1
 92
        2
 72
     0
 73
     1
 93
        3
 10
0.0
 20
0.0
 10
-1.0
 20
-0.1665
 10
-1.0
 20
0.1665
 97
        0
 75
     0
 76
     1
 98
        1
 10
0.0
 20
0.0
1001
VDEXTRAPARAM
1071
        1
1071
        0
1071
        0
1040
1.0
1000

1000

1040
0.0
1040
0.0
1001
VD_TEMPHATCH
1000
VD_TEMPHATCH
  0
ENDBLK
  5
1955
330
1904
100
AcDbEntity
  8
0
100
AcDbBlockEnd
  0
BLOCK
  5
1956
330
1906
100
AcDbEntity
  8
0
100
AcDbBlockBegin
  2
VDDIM_NONE
 70
     0
 71
     0
 10
0.0
 20
0.0
 30
0.0
  3
VDDIM_NONE
  1

  0
ENDBLK
  5
1957
330
1906
100
AcDbEntity
  8
0
100
AcDbBlockEnd
  0
BLOCK
  5
1963
330
1959
100
AcDbEntity
  8
0
100
AcDbBlockBegin
  2
*D5
 70
     1
 71
     0
 10
0.0
 20
0.0
 30
0.0
  3
*D5
  1

  0
LINE
  5
195A
330
1959
100
AcDbEntity
  8
V0-VYPLNE
 62
     0
100
AcDbLine
 10
81.141239
 20
-277.166006
 30
0.0
 11
81.14123899999996
 21
-317.3058190000011
 31
0.0
  0
LINE
  5
195B
330
1959
100
AcDbEntity
  8
V0-VYPLNE
 62
     0
100
AcDbLine
 10
331.141239
 20
-277.166006
 30
0.0
 11
331.141239
 21
-317.3058190000011
 31
0.0
  0
LINE
  5
195C
330
1959
100
AcDbEntity
  8
V0-VYPLNE
 62
     0
100
AcDbLine
 10
101.141239
 20
-316.0558190000011
 30
0.0
 11
311.141239
 21
-316.0558190000011
 31
0.0
  0
INSERT
  5
195D
330
1959
100
AcDbEntity
  8
V0-VYPLNE
 62
     0
100
AcDbBlockReference
  2
_OPEN
 10
81.14123899999996
 20
-316.0558190000011
 30
0.0
 41
20.0
 42
20.0
 43
20.0
 50
180.0
  0
INSERT
  5
195E
330
1959
100
AcDbEntity
  8
V0-VYPLNE
 62
     0
100
AcDbBlockReference
  2
_OPEN
 10
331.141239
 20
-316.0558190000011
 30
0.0
 41
20.0
 42
20.0
 43
20.0
  0
MTEXT
  5
195F
330
1959
100
AcDbEntity
  8
V0-VYPLNE
 62
     0
100
AcDbMText
 10
206.141239
 20
-304.5558190000011
 30
0.0
 40
20.0
 41
0.0
 71
     5
 72
     1
  1
%%c\A1;250
  7
ED20
  0
POINT
  5
1960
330
1959
100
AcDbEntity
  8
DEFPOINTS
 62
     0
100
AcDbPoint
 10
81.141239
 20
-276.166006
 30
0.0
  0
POINT
  5
1961
330
1959
100
AcDbEntity
  8
DEFPOINTS
 62
     0
100
AcDbPoint
 10
331.141239
 20
-276.166006
 30
0.0
  0
POINT
  5
1962
330
1959
100
AcDbEntity
  8
DEFPOINTS
 62
     0
100
AcDbPoint
 10
331.141239
 20
-316.0558190000011
 30
0.0
  0
ENDBLK
  5
1964
330
1959
100
AcDbEntity
  8
0
100
AcDbBlockEnd
  0
BLOCK
  5
1970
330
1965
100
AcDbEntity
  8
0
100
AcDbBlockBegin
  2
*D6
 70
     1
 71
     0
 10
0.0
 20
0.0
 30
0.0
  3
*D6
  1

  0
LINE
  5
1966
330
1965
100
AcDbEntity
  8
V0-VYPLNE
 62
     0
100
AcDbLine
 10
41.141239
 20
-277.166006
 30
0.0
 11
41.14123899999999
 21
-369.3589769999962
 31
0.0
  0
LINE
  5
1967
330
1965
100
AcDbEntity
  8
V0-VYPLNE
 62
     0
100
AcDbLine
 10
371.141239
 20
-277.166006
 30
0.0
 11
371.141239
 21
-369.3589769999962
 31
0.0
  0
LINE
  5
1968
330
1965
100
AcDbEntity
  8
V0-VYPLNE
 62
     0
100
AcDbLine
 10
61.14123899999999
 20
-368.1089769999962
 30
0.0
 11
178.9269532857143
 21
-368.1089769999962
 31
0.0
  0
LINE
  5
1969
330
1965
100
AcDbEntity
  8
V0-VYPLNE
 62
     0
100
AcDbLine
 10
351.141239
 20
-368.1089769999962
 30
0.0
 11
233.3555247142857
 21
-368.1089769999962
 31
0.0
  0
INSERT
  5
196A
330
1965
100
AcDbEntity
  8
V0-VYPLNE
 62
     0
100
AcDbBlockReference
  2
_OPEN
 10
41.14123899999999
 20
-368.1089769999962
 30
0.0
 41
20.0
 42
20.0
 43
20.0
 50
180.0
  0
INSERT
  5
196B
330
1965
100
AcDbEntity
  8
V0-VYPLNE
 62
     0
100
AcDbBlockReference
  2
_OPEN
 10
371.141239
 20
-368.1089769999962
 30
0.0
 41
20.0
 42
20.0
 43
20.0
  0
MTEXT
  5
196C
330
1965
100
AcDbEntity
  8
V0-VYPLNE
 62
     0
100
AcDbMText
 10
206.141239
 20
-368.108977
 30
0.0
 40
20.0
 41
0.0
 71
     5
 72
     1
  1
\A1;330
  7
ED20
  0
POINT
  5
196D
330
1965
100
AcDbEntity
  8
DEFPOINTS
 62
     0
100
AcDbPoint
 10
41.141239
 20
-276.166006
 30
0.0
  0
POINT
  5
196E
330
1965
100
AcDbEntity
  8
DEFPOINTS
 62
     0
100
AcDbPoint
 10
371.141239
 20
-276.166006
 30
0.0
  0
POINT
  5
196F
330
1965
100
AcDbEntity
  8
DEFPOINTS
 62
     0
100
AcDbPoint
 10
371.141239
 20
-368.1089769999962
 30
0.0
  0
ENDBLK
  5
1971
330
1965
100
AcDbEntity
  8
0
100
AcDbBlockEnd
  0
BLOCK
  5
197D
330
1972
100
AcDbEntity
  8
0
100
AcDbBlockBegin
  2
*D7
 70
     1
 71
     0
 10
0.0
 20
0.0
 30
0.0
  3
*D7
  1

  0
LINE
  5
1973
330
1972
100
AcDbEntity
  8
V0-VYPLNE
 62
     0
100
AcDbLine
 10
-11.358761
 20
-277.166006
 30
0.0
 11
-11.35876100000007
 21
-414.6058540000231
 31
0.0
  0
LINE
  5
1974
330
1972
100
AcDbEntity
  8
V0-VYPLNE
 62
     0
100
AcDbLine
 10
423.641239
 20
-277.166006
 30
0.0
 11
423.641239
 21
-414.6058540000231
 31
0.0
  0
LINE
  5
1975
330
1972
100
AcDbEntity
  8
V0-VYPLNE
 62
     0
100
AcDbLine
 10
8.641238999999928
 20
-413.3558540000231
 30
0.0
 11
178.9269532857143
 21
-413.3558540000231
 31
0.0
  0
LINE
  5
1976
330
1972
100
AcDbEntity
  8
V0-VYPLNE
 62
     0
100
AcDbLine
 10
403.641239
 20
-413.3558540000231
 30
0.0
 11
233.3555247142857
 21
-413.3558540000231
 31
0.0
  0
INSERT
  5
1977
330
1972
100
AcDbEntity
  8
V0-VYPLNE
 62
     0
100
AcDbBlockReference
  2
_OPEN
 10
-11.35876100000007
 20
-413.3558540000231
 30
0.0
 41
20.0
 42
20.0
 43
20.0
 50
180.0
  0
INSERT
  5
1978
330
1972
100
AcDbEntity
  8
V0-VYPLNE
 62
     0
100
AcDbBlockReference
  2
_OPEN
 10
423.641239
 20
-413.3558540000231
 30
0.0
 41
20.0
 42
20.0
 43
20.0
  0
MTEXT
  5
1979
330
1972
100
AcDbEntity
  8
V0-VYPLNE
 62
     0
100
AcDbMText
 10
206.141239
 20
-413.355854
 30
0.0
 40
20.0
 41
0.0
 71
     5
 72
     1
  1
\A1;435
  7
ED20
  0
POINT
  5
197A
330
1972
100
AcDbEntity
  8
DEFPOINTS
 62
     0
100
AcDbPoint
 10
-11.358761
 20
-276.166006
 30
0.0
  0
POINT
  5
197B
330
1972
100
AcDbEntity
  8
DEFPOINTS
 62
     0
100
AcDbPoint
 10
423.641239
 20
-276.166006
 30
0.0
  0
POINT
  5
197C
330
1972
100
AcDbEntity
  8
DEFPOINTS
 62
     0
100
AcDbPoint
 10
423.641239
 20
-413.3558540000231
 30
0.0
  0
ENDBLK
  5
197E
330
1972
100
AcDbEntity
  8
0
100
AcDbBlockEnd
  0
BLOCK
  5
1989
330
197F
100
AcDbEntity
  8
0
100
AcDbBlockBegin
  2
*D8
 70
     1
 71
     0
 10
0.0
 20
0.0
 30
0.0
  3
*D8
  1

  0
LINE
  5
1980
330
197F
100
AcDbEntity
  8
V0-VYPLNE
 62
     0
100
AcDbLine
 10
-71.858761
 20
144.833994
 30
0.0
 11
-71.85876100000002
 21
223.5279210000008
 31
0.0
  0
LINE
  5
1981
330
197F
100
AcDbEntity
  8
V0-VYPLNE
 62
     0
100
AcDbLine
 10
484.141239
 20
144.833994
 30
0.0
 11
484.141239
 21
223.5279210000008
 31
0.0
  0
LINE
  5
1982
330
197F
100
AcDbEntity
  8
V0-VYPLNE
 62
     0
100
AcDbLine
 10
-51.85876100000002
 20
222.2779210000008
 30
0.0
 11
464.141239
 21
222.2779210000008
 31
0.0
  0
INSERT
  5
1983
330
197F
100
AcDbEntity
  8
V0-VYPLNE
 62
     0
100
AcDbBlockReference
  2
_OPEN
 10
-71.85876100000002
 20
222.2779210000008
 30
0.0
 41
20.0
 42
20.0
 43
20.0
 50
180.0
  0
INSERT
  5
1984
330
197F
100
AcDbEntity
  8
V0-VYPLNE
 62
     0
100
AcDbBlockReference
  2
_OPEN
 10
484.141239
 20
222.2779210000008
 30
0.0
 41
20.0
 42
20.0
 43
20.0
 50
360.0
  0
MTEXT
  5
1985
330
197F
100
AcDbEntity
  8
V0-VYPLNE
 62
     0
100
AcDbMText
 10
206.141239
 20
233.7779210000008
 30
0.0
 40
20.0
 41
0.0
 71
     5
 72
     1
  1
%%c\A1;556
  7
ED20
  0
POINT
  5
1986
330
197F
100
AcDbEntity
  8
DEFPOINTS
 62
     0
100
AcDbPoint
 10
-71.858761
 20
143.833994
 30
0.0
  0
POINT
  5
1987
330
197F
100
AcDbEntity
  8
DEFPOINTS
 62
     0
100
AcDbPoint
 10
484.141239
 20
143.833994
 30
0.0
  0
POINT
  5
1988
330
197F
100
AcDbEntity
  8
DEFPOINTS
 62
     0
100
AcDbPoint
 10
484.141239
 20
222.2779210000008
 30
0.0
  0
ENDBLK
  5
198A
330
197F
100
AcDbEntity
  8
0
100
AcDbBlockEnd
  0
BLOCK
  5
1995
330
198B
100
AcDbEntity
  8
0
100
AcDbBlockBegin
  2
*D9
 70
     1
 71
     0
 10
0.0
 20
0.0
 30
0.0
  3
*D9
  1

  0
LINE
  5
198C
330
198B
100
AcDbEntity
  8
V0-VYPLNE
 62
     0
100
AcDbLine
 10
317.141239
 20
175.833994
 30
0.0
 11
546.7831500000031
 21
175.833994
 31
0.0
  0
LINE
  5
198D
330
198B
100
AcDbEntity
  8
V0-VYPLNE
 62
     0
100
AcDbLine
 10
424.641239
 20
-276.166006
 30
0.0
 11
546.7831500000031
 21
-276.166006
 31
0.0
  0
LINE
  5
198E
330
198B
100
AcDbEntity
  8
V0-VYPLNE
 62
     0
100
AcDbLine
 10
545.5331500000031
 20
155.8339940000001
 30
0.0
 11
545.5331500000031
 21
-256.1660059999999
 31
0.0
  0
INSERT
  5
198F
330
198B
100
AcDbEntity
  8
V0-VYPLNE
 62
     0
100
AcDbBlockReference
  2
_OPEN
 10
545.5331500000031
 20
175.8339940000001
 30
0.0
 41
20.0
 42
20.0
 43
20.0
 50
90.0
  0
INSERT
  5
1990
330
198B
100
AcDbEntity
  8
V0-VYPLNE
 62
     0
100
AcDbBlockReference
  2
_OPEN
 10
545.5331500000031
 20
-276.1660059999999
 30
0.0
 41
20.0
 42
20.0
 43
20.0
 50
270.0
  0
MTEXT
  5
1991
330
198B
100
AcDbEntity
  8
V0-VYPLNE
 62
     0
100
AcDbMText
 10
534.0331500000031
 20
-50.16600599999998
 30
0.0
 40
20.0
 41
0.0
 71
     5
 72
     1
  1
\A1;452
  7
ED20
 11
0.0
 21
1.0
 31
0.0
  0
POINT
  5
1992
330
198B
100
AcDbEntity
  8
DEFPOINTS
 62
     0
100
AcDbPoint
 10
316.141239
 20
175.833994
 30
0.0
  0
POINT
  5
1993
330
198B
100
AcDbEntity
  8
DEFPOINTS
 62
     0
100
AcDbPoint
 10
423.641239
 20
-276.166006
 30
0.0
  0
POINT
  5
1994
330
198B
100
AcDbEntity
  8
DEFPOINTS
 62
     0
100
AcDbPoint
 10
545.5331500000031
 20
-276.166006
 30
0.0
  0
ENDBLK
  5
1996
330
198B
100
AcDbEntity
  8
0
100
AcDbBlockEnd
  0
ENDSEC
  0
SECTION
  2
ENTITIES
  0
LINE
  5
1127
330
1926
100
AcDbEntity
  8
V0-VYPLNE
  6
DASHDOT
 62
    63
100
AcDbLine
 10
206.141239
 20
175.833994
 30
0.0
 11
206.141239
 21
-244.805576
 31
0.0
  0
CIRCLE
  5
11B0
330
1926
100
AcDbEntity
  8
V0-VYPLNE
  6
DASHED
 62
    56
100
AcDbCircle
 10
371.332489
 20
-552.058037
 30
0.0
 40
4.71975
  0
LINE
  5
11B1
330
1926
100
AcDbEntity
  8
V0-VYPLNE
 62
    63
100
AcDbLine
 10
371.332489
 20
-572.285537
 30
0.0
 11
371.332489
 21
-531.8305370000001
 31
0.0
  0
LINE
  5
11BE
330
1926
100
AcDbEntity
  8
V0-VYPLNE
100
AcDbLine
 10
41.141239
 20
-286.166006
 30
0.0
 11
41.141239
 21
-236.166006
 31
0.0
  0
LINE
  5
11BF
330
1926
100
AcDbEntity
  8
V0-VYPLNE
100
AcDbLine
 10
371.141239
 20
-286.166006
 30
0.0
 11
371.141239
 21
-236.166006
 31
0.0
  0
POINT
  5
12BC
330
1926
100
AcDbEntity
  8
V0-VYPLNE
  6
CONTINUOUS
 62
    41
100
AcDbPoint
 10
206.141239
 20
-717.249287
 30
0.0
  0
POINT
  5
12BD
330
1926
100
AcDbEntity
  8
V0-VYPLNE
  6
CONTINUOUS
 62
    41
100
AcDbPoint
 10
206.141239
 20
-276.166006
 30
0.0
  0
LINE
  5
13BB
330
1926
100
AcDbEntity
  8
V0-VYPLNE
  6
DASHDOT
 62
    63
100
AcDbLine
 10
-32.543657
 20
-717.249287
 30
0.0
 11
453.422878
 21
-717.249287
 31
0.0
  0
CIRCLE
  5
13BF
330
1926
100
AcDbEntity
  8
V0-OBRYS
  6
CONTINUOUS
 62
    90
100
AcDbCircle
 10
206.141239
 20
-717.249287
 30
0.0
 40
277.455232
  0
CIRCLE
  5
13C0
330
1926
100
AcDbEntity
  8
V0-OBRYS
  6
CONTINUOUS
 62
    90
100
AcDbCircle
 10
206.141239
 20
-717.249287
 30
0.0
 40
124.3375
  0
LINE
  5
13C2
330
1926
100
AcDbEntity
  8
V0-VYPLNE
 62
    63
100
AcDbLine
 10
391.559989
 20
-552.058037
 30
0.0
 11
351.104989
 21
-552.058037
 31
0.0
  0
LINE
  5
13C5
330
1926
100
AcDbEntity
  8
V0-VYPLNE
 62
    63
100
AcDbLine
 10
61.177489
 20
-552.058037
 30
0.0
 11
20.722489
 21
-552.058037
 31
0.0
  0
LINE
  5
13C6
330
1926
100
AcDbEntity
  8
V0-VYPLNE
 62
    63
100
AcDbLine
 10
40.949989
 20
-531.8305370000001
 30
0.0
 11
40.949989
 21
-572.285537
 31
0.0
  0
CIRCLE
  5
13C7
330
1926
100
AcDbEntity
  8
V0-VYPLNE
  6
DASHED
 62
    56
100
AcDbCircle
 10
40.949989
 20
-552.058037
 30
0.0
 40
4.71975
  0
LINE
  5
13C8
330
1926
100
AcDbEntity
  8
V0-VYPLNE
 62
    63
100
AcDbLine
 10
40.949989
 20
-862.213037
 30
0.0
 11
40.949989
 21
-902.668037
 31
0.0
  0
LINE
  5
13C9
330
1926
100
AcDbEntity
  8
V0-VYPLNE
 62
    63
100
AcDbLine
 10
20.722489
 20
-882.440537
 30
0.0
 11
61.17748899999999
 21
-882.440537
 31
0.0
  0
CIRCLE
  5
13CA
330
1926
100
AcDbEntity
  8
V0-VYPLNE
  6
DASHED
 62
    56
100
AcDbCircle
 10
40.949989
 20
-882.440537
 30
0.0
 40
4.71975
  0
LINE
  5
13CB
330
1926
100
AcDbEntity
  8
V0-VYPLNE
 62
    63
100
AcDbLine
 10
351.104989
 20
-882.440537
 30
0.0
 11
391.559989
 21
-882.440537
 31
0.0
  0
LINE
  5
13CC
330
1926
100
AcDbEntity
  8
V0-VYPLNE
 62
    63
100
AcDbLine
 10
371.332489
 20
-902.668037
 30
0.0
 11
371.332489
 21
-862.213037
 31
0.0
  0
CIRCLE
  5
13CD
330
1926
100
AcDbEntity
  8
V0-VYPLNE
  6
DASHED
 62
    56
100
AcDbCircle
 10
371.332489
 20
-882.440537
 30
0.0
 40
4.71975
  0
LINE
  5
13CE
330
1926
100
AcDbEntity
  8
V0-VYPLNE
  6
DASHED
 62
    52
100
AcDbLine
 10
423.641239
 20
-499.749287
 30
0.0
 11
-11.35876100000002
 21
-499.749287
 31
0.0
  0
LINE
  5
13CF
330
1926
100
AcDbEntity
  8
V0-VYPLNE
  6
DASHED
 62
    52
100
AcDbLine
 10
-11.358761
 20
-499.749287
 30
0.0
 11
-11.358761
 21
-934.749287
 31
0.0
  0
LINE
  5
13D0
330
1926
100
AcDbEntity
  8
V0-VYPLNE
  6
DASHED
 62
    52
100
AcDbLine
 10
-11.358761
 20
-934.749287
 30
0.0
 11
423.641239
 21
-934.749287
 31
0.0
  0
LINE
  5
13D1
330
1926
100
AcDbEntity
  8
V0-VYPLNE
  6
DASHED
 62
    52
100
AcDbLine
 10
423.641239
 20
-934.749287
 30
0.0
 11
423.641239
 21
-499.749287
 31
0.0
  0
LINE
  5
13D2
330
1926
100
AcDbEntity
  8
V0-OBRYS
  6
CONTINUOUS
 62
    90
100
AcDbLine
 10
-11.358761
 20
-276.166006
 30
0.0
 11
423.641239
 21
-276.166006
 31
0.0
  0
LINE
  5
13D3
330
1926
100
AcDbEntity
  8
V0-OBRYS
  6
CONTINUOUS
 62
    90
100
AcDbLine
 10
423.641239
 20
-276.166006
 30
0.0
 11
423.641239
 21
-261.166006
 31
0.0
  0
LINE
  5
13D4
330
1926
100
AcDbEntity
  8
V0-OBRYS
  6
CONTINUOUS
 62
    90
100
AcDbLine
 10
423.641239
 20
-261.166006
 30
0.0
 11
-11.35876100000002
 21
-261.166006
 31
0.0
  0
LINE
  5
13D5
330
1926
100
AcDbEntity
  8
V0-OBRYS
  6
CONTINUOUS
 62
    90
100
AcDbLine
 10
-11.358761
 20
-261.166006
 30
0.0
 11
-11.358761
 21
-276.166006
 31
0.0
  0
LINE
  5
13D6
330
1926
100
AcDbEntity
  8
V0-OBRYS
  6
CONTINUOUS
 62
    90
100
AcDbLine
 10
28.641239
 20
-261.166006
 30
0.0
 11
28.641239
 21
-258.166006
 31
0.0
  0
LINE
  5
13D7
330
1926
100
AcDbEntity
  8
V0-OBRYS
  6
CONTINUOUS
 62
    90
100
AcDbLine
 10
28.641239
 20
-258.166006
 30
0.0
 11
383.641239
 21
-258.166006
 31
0.0
  0
LINE
  5
13D8
330
1926
100
AcDbEntity
  8
V0-OBRYS
  6
CONTINUOUS
 62
    90
100
AcDbLine
 10
383.641239
 20
-258.166006
 30
0.0
 11
383.641239
 21
-261.166006
 31
0.0
  0
LINE
  5
13EA
330
1926
100
AcDbEntity
  8
V0-OBRYS
  6
CONTINUOUS
 62
    90
100
AcDbLine
 10
331.141239
 20
-256.166006
 30
0.0
 11
331.141239
 21
-276.166006
 31
0.0
  0
LINE
  5
1416
330
1926
100
AcDbEntity
  8
V0-VYPLNE
  6
CONTINUOUS
 62
    52
100
AcDbLine
 10
326.141239
 20
-258.166006
 30
0.0
 11
86.14123899999999
 21
-258.166006
 31
0.0
  0
LINE
  5
1456
330
1926
100
AcDbEntity
  8
V0-OBRYS
  6
CONTINUOUS
 62
    90
100
AcDbLine
 10
81.141239
 20
-256.166006
 30
0.0
 11
81.141239
 21
-276.166006
 31
0.0
  0
INSERT
  5
145C
330
1926
100
AcDbEntity
  8
V0-VYPLNE
  6
CONTINUOUS
 62
    52
100
AcDbBlockReference
  2
A10_100
 10
1091.344077
 20
-456.786598
 30
0.0
  0
DIMENSION
  5
1469
330
1926
100
AcDbEntity
  8
V0-VYPLNE
  6
CONTINUOUS
 62
    41
100
AcDbDimension
  2
*D5
 10
331.141239
 20
-316.0558190000011
 30
0.0
 11
206.141239
 21
-304.5558190000011
 31
0.0
 70
    32
  1
%%c<>
  3
ED20
100
AcDbAlignedDimension
 13
81.141239
 23
-276.166006
 33
0.0
 14
331.141239
 24
-276.166006
 34
0.0
100
AcDbRotatedDimension
1001
ACAD
1000
DSTYLE
1002
{
1070
    40
1040
1.0
1002
}
  0
DIMENSION
  5
1476
330
1926
100
AcDbEntity
  8
V0-VYPLNE
  6
CONTINUOUS
 62
    41
100
AcDbDimension
  2
*D6
 10
371.141239
 20
-368.1089769999962
 30
0.0
 11
206.141239
 21
-368.108977
 31
0.0
 70
   160
  3
ED20
100
AcDbAlignedDimension
 13
41.141239
 23
-276.166006
 33
0.0
 14
371.141239
 24
-276.166006
 34
0.0
100
AcDbRotatedDimension
1001
ACAD
1000
DSTYLE
1002
{
1070
    40
1040
1.0
1002
}
  0
DIMENSION
  5
1483
330
1926
100
AcDbEntity
  8
V0-VYPLNE
  6
CONTINUOUS
 62
    41
100
AcDbDimension
  2
*D7
 10
423.641239
 20
-413.3558540000231
 30
0.0
 11
206.141239
 21
-413.355854
 31
0.0
 70
   160
  3
ED20
100
AcDbAlignedDimension
 13
-11.358761
 23
-276.166006
 33
0.0
 14
423.641239
 24
-276.166006
 34
0.0
100
AcDbRotatedDimension
1001
ACAD
1000
DSTYLE
1002
{
1070
    40
1040
1.0
1002
}
  0
LINE
  5
14A6
330
1926
100
AcDbEntity
  8
V0-VYPLNE
  6
CONTINUOUS
 62
    41
100
AcDbLine
 10
160.461904
 20
-410.679259
 30
0.0
 11
170.923077
 21
-392.030431
 31
0.0
  0
LWPOLYLINE
  5
14A7
330
1926
100
AcDbEntity
  8
V0-VYPLNE
  6
CONTINUOUS
 62
    41
100
AcDbPolyline
 90
        4
 70
     1
 43
0.0
 10
160.539889
 20
-406.883264
 10
171.664727
 20
-406.883264
 10
171.664727
 20
-395.768671
 10
160.539889
 20
-395.768671
  0
LWPOLYLINE
  5
14A8
330
1926
100
AcDbEntity
  8
V0-VYPLNE
  6
CONTINUOUS
 62
    41
100
AcDbPolyline
 90
        4
 70
     1
 43
0.0
 10
160.539889
 20
-358.995475
 10
171.664727
 20
-358.995475
 10
171.664727
 20
-347.880883
 10
160.539889
 20
-347.880883
  0
LINE
  5
14A9
330
1926
100
AcDbEntity
  8
V0-VYPLNE
  6
CONTINUOUS
 62
    41
100
AcDbLine
 10
160.461904
 20
-362.79147
 30
0.0
 11
170.923077
 21
-344.142642
 31
0.0
  0
LINE
  5
16AD
330
1926
100
AcDbEntity
  8
V0-OBRYS
  6
CONTINUOUS
 62
    90
100
AcDbLine
 10
29.60862
 20
-499.749287
 30
0.0
 11
-11.358761
 21
-499.749287
 31
0.0
  0
LINE
  5
16AE
330
1926
100
AcDbEntity
  8
V0-OBRYS
  6
CONTINUOUS
 62
    90
100
AcDbLine
 10
-11.358761
 20
-499.749287
 30
0.0
 11
-11.358761
 21
-540.716667
 31
0.0
  0
LINE
  5
16AF
330
1926
100
AcDbEntity
  8
V0-OBRYS
  6
CONTINUOUS
 62
    90
100
AcDbLine
 10
-11.358761
 20
-893.7819060000001
 30
0.0
 11
-11.358761
 21
-934.749287
 31
0.0
  0
LINE
  5
16B0
330
1926
100
AcDbEntity
  8
V0-OBRYS
  6
CONTINUOUS
 62
    90
100
AcDbLine
 10
-11.358761
 20
-934.749287
 30
0.0
 11
29.60862
 21
-934.749287
 31
0.0
  0
LINE
  5
16B1
330
1926
100
AcDbEntity
  8
V0-OBRYS
  6
CONTINUOUS
 62
    90
100
AcDbLine
 10
382.673858
 20
-934.749287
 30
0.0
 11
423.641239
 21
-934.749287
 31
0.0
  0
LINE
  5
16B2
330
1926
100
AcDbEntity
  8
V0-OBRYS
  6
CONTINUOUS
 62
    90
100
AcDbLine
 10
423.641239
 20
-934.749287
 30
0.0
 11
423.641239
 21
-893.7819060000001
 31
0.0
  0
LINE
  5
16B3
330
1926
100
AcDbEntity
  8
V0-OBRYS
  6
CONTINUOUS
 62
    90
100
AcDbLine
 10
423.641239
 20
-540.716667
 30
0.0
 11
423.641239
 21
-499.749287
 31
0.0
  0
LINE
  5
16B4
330
1926
100
AcDbEntity
  8
V0-OBRYS
  6
CONTINUOUS
 62
    90
100
AcDbLine
 10
423.641239
 20
-499.749287
 30
0.0
 11
382.673858
 21
-499.749287
 31
0.0
  0
LINE
  5
17B1
330
1926
100
AcDbEntity
  8
V0-OBRYS
  6
CONTINUOUS
 62
    90
100
AcDbLine
 10
96.141239
 20
175.833994
 30
0.0
 11
316.141239
 21
175.833994
 31
0.0
  0
LINE
  5
17B2
330
1926
100
AcDbEntity
  8
V0-OBRYS
  6
CONTINUOUS
 62
    90
100
AcDbLine
 10
-71.858761
 20
71.993805
 30
0.0
 11
-71.858761
 21
143.833994
 31
0.0
  0
ARC
  5
17B5
330
1926
100
AcDbEntity
  8
V0-OBRYS
  6
CONTINUOUS
 62
    90
100
AcDbCircle
 10
432.279105
 20
87.11740399999999
 30
0.0
 40
504.364661
100
AcDbArc
 50
179.06079
 51
223.184368
  0
LINE
  5
17B6
330
1926
100
AcDbEntity
  8
V0-OBRYS
  6
CONTINUOUS
 62
    90
100
AcDbLine
 10
484.141239
 20
71.993805
 30
0.0
 11
484.141239
 21
143.833994
 31
0.0
  0
ARC
  5
17B7
330
1926
100
AcDbEntity
  8
V0-OBRYS
  6
CONTINUOUS
 62
    90
100
AcDbCircle
 10
-19.996627
 20
87.11740399999999
 30
0.0
 40
504.364661
100
AcDbArc
 50
316.815632
 51
0.93921
  0
LINE
  5
17B9
330
1926
100
AcDbEntity
  8
V0-OBRYS
  6
CONTINUOUS
 62
    90
100
AcDbLine
 10
-71.858761
 20
143.833994
 30
0.0
 11
484.141239
 21
143.833994
 31
0.0
  0
LINE
  5
17BA
330
1926
100
AcDbEntity
  8
V0-OBRYS
  6
CONTINUOUS
 62
    90
100
AcDbLine
 10
81.141239
 20
143.833994
 30
0.0
 11
81.141239
 21
160.833994
 31
0.0
  0
ARC
  5
17BD
330
1926
100
AcDbEntity
  8
V0-OBRYS
  6
CONTINUOUS
 62
    90
100
AcDbCircle
 10
96.141239
 20
160.833994
 30
0.0
 40
15.0
100
AcDbArc
 50
90.0
 51
180.0
  0
LINE
  5
17BE
330
1926
100
AcDbEntity
  8
V0-OBRYS
  6
CONTINUOUS
 62
    90
100
AcDbLine
 10
331.141239
 20
143.833994
 30
0.0
 11
331.141239
 21
160.833994
 31
0.0
  0
ARC
  5
17BF
330
1926
100
AcDbEntity
  8
V0-OBRYS
  6
CONTINUOUS
 62
    90
100
AcDbCircle
 10
316.141239
 20
160.833994
 30
0.0
 40
15.0
100
AcDbArc
 50
0.0
 51
90.0
  0
LINE
  5
17C0
330
1926
100
AcDbEntity
  8
V0-OBRYS
  6
CONTINUOUS
 62
    90
100
AcDbLine
 10
484.307201
 20
129.363462
 30
0.0
 11
491.847749
 21
129.363462
 31
0.0
  0
LINE
  5
17C1
330
1926
100
AcDbEntity
  8
V0-OBRYS
  6
CONTINUOUS
 62
    90
100
AcDbLine
 10
491.847749
 20
129.363462
 30
0.0
 11
491.847749
 21
66.583422
 31
0.0
  0
LINE
  5
17C2
330
1926
100
AcDbEntity
  8
V0-OBRYS
  6
CONTINUOUS
 62
    90
100
AcDbLine
 10
491.847749
 20
66.583422
 30
0.0
 11
484.307201
 21
66.583422
 31
0.0
  0
LINE
  5
17C3
330
1926
100
AcDbEntity
  8
V0-VYPLNE
  6
DASHDOT
 62
    63
100
AcDbLine
 10
206.141239
 20
-425.61209
 30
0.0
 11
206.141239
 21
-964.530925
 31
0.0
  0
LINE
  5
17C4
330
1926
100
AcDbEntity
  8
V0-OBRYS
  6
CONTINUOUS
 62
    90
100
AcDbLine
 10
614.3312560000001
 20
143.833994
 30
0.0
 11
1170.331256
 21
143.833994
 31
0.0
  0
ARC
  5
17C5
330
1926
100
AcDbEntity
  8
V0-OBRYS
  6
CONTINUOUS
 62
    90
100
AcDbCircle
 10
666.19339
 20
87.11740399999999
 30
0.0
 40
504.364661
100
AcDbArc
 50
316.815632
 51
0.93921
  0
ARC
  5
17C6
330
1926
100
AcDbEntity
  8
V0-OBRYS
  6
CONTINUOUS
 62
    90
100
AcDbCircle
 10
1118.469122
 20
87.11740399999999
 30
0.0
 40
504.364661
100
AcDbArc
 50
179.06079
 51
223.184368
  0
LINE
  5
17C7
330
1926
100
AcDbEntity
  8
V0-OBRYS
  6
CONTINUOUS
 62
    90
100
AcDbLine
 10
714.8312560000001
 20
-258.166006
 30
0.0
 11
1069.831256
 21
-258.166006
 31
0.0
  0
LINE
  5
17C8
330
1926
100
AcDbEntity
  8
V0-OBRYS
  6
CONTINUOUS
 62
    90
100
AcDbLine
 10
1109.831256
 20
-261.166006
 30
0.0
 11
674.8312560000001
 21
-261.166006
 31
0.0
  0
LINE
  5
17C9
330
1926
100
AcDbEntity
  8
V0-OBRYS
  6
CONTINUOUS
 62
    90
100
AcDbLine
 10
674.8312560000001
 20
-276.166006
 30
0.0
 11
1109.831256
 21
-276.166006
 31
0.0
  0
LINE
  5
17CA
330
1926
100
AcDbEntity
  8
V0-VYPLNE
100
AcDbLine
 10
727.3312560000001
 20
-286.166006
 30
0.0
 11
727.3312560000001
 21
-236.166006
 31
0.0
  0
LINE
  5
17CB
330
1926
100
AcDbEntity
  8
V0-OBRYS
  6
CONTINUOUS
 62
    90
100
AcDbLine
 10
674.8312560000001
 20
-261.166006
 30
0.0
 11
674.8312560000001
 21
-276.166006
 31
0.0
  0
LINE
  5
17CC
330
1926
100
AcDbEntity
  8
V0-OBRYS
  6
CONTINUOUS
 62
    90
100
AcDbLine
 10
714.8312560000001
 20
-261.166006
 30
0.0
 11
714.8312560000001
 21
-258.166006
 31
0.0
  0
LINE
  5
17CD
330
1926
100
AcDbEntity
  8
V0-OBRYS
  6
CONTINUOUS
 62
    90
100
AcDbLine
 10
614.3312560000001
 20
71.993805
 30
0.0
 11
614.3312560000001
 21
143.833994
 31
0.0
  0
LINE
  5
17CE
330
1926
100
AcDbEntity
  8
V0-VYPLNE
  6
DASHDOT
 62
    63
100
AcDbLine
 10
892.3312560000001
 20
175.833994
 30
0.0
 11
892.3312560000001
 21
-244.805576
 31
0.0
  0
LINE
  5
17CF
330
1926
100
AcDbEntity
  8
V0-VYPLNE
  6
CONTINUOUS
 62
    52
100
AcDbLine
 10
1012.331256
 20
-258.166006
 30
0.0
 11
772.3312560000001
 21
-258.166006
 31
0.0
  0
LINE
  5
17D0
330
1926
100
AcDbEntity
  8
V0-OBRYS
  6
CONTINUOUS
 62
    90
100
AcDbLine
 10
767.3312560000001
 20
-256.166006
 30
0.0
 11
767.3312560000001
 21
-276.166006
 31
0.0
  0
POINT
  5
17D1
330
1926
100
AcDbEntity
  8
V0-VYPLNE
  6
CONTINUOUS
 62
    41
100
AcDbPoint
 10
892.3312560000001
 20
-276.166006
 30
0.0
  0
LINE
  5
17D2
330
1926
100
AcDbEntity
  8
V0-OBRYS
  6
CONTINUOUS
 62
    90
100
AcDbLine
 10
1017.331256
 20
-256.166006
 30
0.0
 11
1017.331256
 21
-276.166006
 31
0.0
  0
LINE
  5
17D3
330
1926
100
AcDbEntity
  8
V0-VYPLNE
100
AcDbLine
 10
1057.331256
 20
-286.166006
 30
0.0
 11
1057.331256
 21
-236.166006
 31
0.0
  0
LINE
  5
17D4
330
1926
100
AcDbEntity
  8
V0-OBRYS
  6
CONTINUOUS
 62
    90
100
AcDbLine
 10
1069.831256
 20
-258.166006
 30
0.0
 11
1069.831256
 21
-261.166006
 31
0.0
  0
LINE
  5
17D5
330
1926
100
AcDbEntity
  8
V0-OBRYS
  6
CONTINUOUS
 62
    90
100
AcDbLine
 10
1109.831256
 20
-276.166006
 30
0.0
 11
1109.831256
 21
-261.166006
 31
0.0
  0
LINE
  5
17D6
330
1926
100
AcDbEntity
  8
V0-OBRYS
  6
CONTINUOUS
 62
    90
100
AcDbLine
 10
782.3312560000001
 20
175.833994
 30
0.0
 11
1002.331256
 21
175.833994
 31
0.0
  0
LINE
  5
17D7
330
1926
100
AcDbEntity
  8
V0-OBRYS
  6
CONTINUOUS
 62
    90
100
AcDbLine
 10
767.3312560000001
 20
143.833994
 30
0.0
 11
767.3312560000001
 21
160.833994
 31
0.0
  0
ARC
  5
17D8
330
1926
100
AcDbEntity
  8
V0-OBRYS
  6
CONTINUOUS
 62
    90
100
AcDbCircle
 10
782.3312560000001
 20
160.833994
 30
0.0
 40
15.0
100
AcDbArc
 50
90.0
 51
180.0
  0
LINE
  5
17D9
330
1926
100
AcDbEntity
  8
V0-OBRYS
  6
CONTINUOUS
 62
    90
100
AcDbLine
 10
1017.331256
 20
143.833994
 30
0.0
 11
1017.331256
 21
160.833994
 31
0.0
  0
ARC
  5
17DA
330
1926
100
AcDbEntity
  8
V0-OBRYS
  6
CONTINUOUS
 62
    90
100
AcDbCircle
 10
1002.331256
 20
160.833994
 30
0.0
 40
15.0
100
AcDbArc
 50
0.0
 51
90.0
  0
LINE
  5
17DB
330
1926
100
AcDbEntity
  8
V0-OBRYS
  6
CONTINUOUS
 62
    90
100
AcDbLine
 10
1170.331256
 20
71.993805
 30
0.0
 11
1170.331256
 21
143.833994
 31
0.0
  0
DIMENSION
  5
17E8
330
1926
100
AcDbEntity
  8
V0-VYPLNE
  6
CONTINUOUS
 62
    41
100
AcDbDimension
  2
*D8
 10
484.141239
 20
222.2779210000008
 30
0.0
 11
206.141239
 21
233.7779210000008
 31
0.0
 70
    32
  1
%%c<>
  3
ED20
100
AcDbAlignedDimension
 13
-71.858761
 23
143.833994
 33
0.0
 14
484.141239
 24
143.833994
 34
0.0
100
AcDbRotatedDimension
1001
ACAD
1000
DSTYLE
1002
{
1070
    40
1040
1.0
1002
}
  0
DIMENSION
  5
1802
330
1926
100
AcDbEntity
  8
V0-VYPLNE
  6
CONTINUOUS
 62
    41
100
AcDbDimension
  2
*D9
 10
545.5331500000031
 20
-276.166006
 30
0.0
 11
534.0331500000031
 21
-50.16600599999998
 31
0.0
 70
    32
  3
ED20
100
AcDbAlignedDimension
 13
316.141239
 23
175.833994
 33
0.0
 14
423.641239
 24
-276.166006
 34
0.0
 50
90.0
100
AcDbRotatedDimension
1001
ACAD
1000
DSTYLE
1002
{
1070
    40
1040
1.0
1002
}
  0
LINE
  5
1821
330
1926
100
AcDbEntity
  8
V0-OBRYS
  6
CONTINUOUS
 62
    90
100
AcDbLine
 10
327.036466
 20
-672.105815
 30
0.0
 11
482.749015
 21
-672.105815
 31
0.0
  0
LINE
  5
1822
330
1926
100
AcDbEntity
  8
V0-OBRYS
  6
CONTINUOUS
 62
    90
100
AcDbLine
 10
327.036466
 20
-762.392758
 30
0.0
 11
482.749015
 21
-762.392758
 31
0.0
  0
TEXT
  5
18F6
330
1926
100
AcDbEntity
  8
V0-NAZVY
  6
CONTINUOUS
100
AcDbText
 10
632.1328033005702
 20
-647.8318359999685
 30
0.0
 40
40.0
  1
CTVB/CTVT 225
  7
ED40
100
AcDbText
  0
LWPOLYLINE
  5
18F9
330
1926
100
AcDbEntity
  8
V0-VYPLNE
  6
CONTINUOUS
 62
    41
100
AcDbPolyline
 90
        4
 70
     1
 43
0.0
 10
29.71213259996607
 20
-248.1347784132734
 10
41.141239
 20
-258.166006
 10
27.07655102589443
 20
-252.3837441422967
 10
27.07655102589443
 20
-252.3837441422967
1001
VDEXTRAPARAM
1071
       65
1071
        0
1071
        0
1040
1.0
1000

1000

1040
0.0
1040
0.0
  0
HATCH
  5
1997
330
1926
100
AcDbEntity
  8
V0-VYPLNE
  6
CONTINUOUS
 62
    41
100
AcDbHatch
 10
0.0
 20
0.0
 30
0.0
210
0.0
220
0.0
230
1.0
  2
SOLID
 70
     1
 71
     0
 91
        1
 92
        2
 72
     0
 73
     1
 93
        3
 10
29.71213259996607
 20
-248.1347784132734
 10
41.141239
 20
-258.166006
 10
27.07655102589443
 20
-252.3837441422967
 97
        0
 75
     0
 76
     1
 98
        1
 10
0.0
 20
0.0
1001
VDEXTRAPARAM
1071
       65
1071
        0
1071
        0
1040
1.0
1000

1000

1040
0.0
1040
0.0
1001
VD_TEMPHATCH
1000
VD_TEMPHATCH
  0
LWPOLYLINE
  5
18FA
330
1926
100
AcDbEntity
  8
V0-VYPLNE
  6
CONTINUOUS
 62
    41
100
AcDbPolyline
 90
        3
 70
     0
 43
0.0
 10
28.39434181293025
 20
-250.2592612777851
 10
-7.592559000000001
 20
-227.937026
 10
-236.733976
 20
-227.937026
  0
TEXT
  5
18FF
330
1926
100
AcDbEntity
  8
V0-VYPLNE
  6
CONTINUOUS
 62
    41
100
AcDbText
 10
-313.2354161428572
 20
-226.434664
 30
0.0
 40
24.0
  1
4 OTVORY %%c 12
  7
ED40
100
AcDbText
  0
VIEWPORT
  5
1998
330
1922
100
AcDbEntity
 67
     1
  8
0
 60
     1
100
AcDbViewport
 10
261.517699
 20
148.5
 30
0.0
 40
297.0
 41
297.0
 68
     0
 69
     1
1001
VD_INVISIBLE_NOT_FOR_READ
1000
VD_INVISIBLE_NOT_FOR_READ
1001
ACAD
1000
MVIEW
1002
{
1070
    16
1010
0.0
1020
0.0
1030
0.0
1010
0.0
1020
0.0
1030
1.0
1040
6.2831853071796
1040
297.0
1040
261.517699
1040
148.5
1040
0.0
1040
0.0
1040
0.0
1070
     0
1070
   100
1070
     0
1070
     1
1070
     0
1070
     0
1070
     0
1070
     0
1040
0.0
1040
0.0
1040
0.0
1040
1.0
1040
1.0
1040
0.0
1040
0.0
1070
     0
1002
{
1002
}
1002
}
  0
VIEWPORT
  5
1999
330
1922
100
AcDbEntity
 67
     1
  8
0
 60
     1
100
AcDbViewport
 10
261.517699
 20
148.5
 30
0.0
 40
297.0
 41
297.0
 68
     0
 69
     2
1001
VD_INVISIBLE_NOT_FOR_READ
1000
VD_INVISIBLE_NOT_FOR_READ
1001
ACAD
1000
MVIEW
1002
{
1070
    16
1010
0.0
1020
0.0
1030
0.0
1010
0.0
1020
0.0
1030
1.0
1040
6.2831853071796
1040
297.0
1040
261.517699
1040
148.5
1040
0.0
1040
0.0
1040
0.0
1070
     0
1070
   100
1070
     0
1070
     1
1070
     0
1070
     0
1070
     0
1070
     0
1040
0.0
1040
0.0
1040
0.0
1040
1.0
1040
1.0
1040
0.0
1040
0.0
1070
     0
1002
{
1002
}
1002
}
  0
ENDSEC
  0
SECTION
  2
OBJECTS
  0
DICTIONARY
  5
1913
330
0
100
AcDbDictionary
  3
ACAD_GROUP
350
1914
  3
ACAD_LAYOUT
350
1921
  3
ACAD_MLINESTYLE
350
191E
  3
ACAD_PLOTSETTINGS
350
1920
  3
ACDBHEADERROUNDTRIPXREC
350
199A
  3
VECTORDRAW_OBJECTS
350
1936
  0
DICTIONARY
  5
19BA
330
1930
100
AcDbDictionary
280
     1
  3
ACAD_XREC_ROUNDTRIP
360
19BB
  0
DICTIONARY
  5
1914
102
{ACAD_REACTORS
330
1913
102
}
330
1913
100
AcDbDictionary
  0
DICTIONARY
  5
1921
102
{ACAD_REACTORS
330
1913
102
}
330
1913
100
AcDbDictionary
  0
DICTIONARY
  5
191E
102
{ACAD_REACTORS
330
1913
102
}
330
1913
100
AcDbDictionary
  3
STANDARD
350
191F
  0
DICTIONARY
  5
1920
102
{ACAD_REACTORS
330
1913
102
}
330
1913
100
AcDbDictionary
  0
DICTIONARY
  5
199A
102
{ACAD_REACTORS
330
1913
102
}
330
1913
100
AcDbDictionary
  3
CEPSNTYPE
350
19A3
  3
DIMSTYLEDATA
350
19B9
  3
FINGERPRINTGUID
350
19A4
  3
HYPERLINKBASE
350
199D
  3
INSUNITS
350
19A2
  3
LAYOUTDICT
350
199F
  3
LWETCUNION
350
19A1
  3
PLOTSETDICT
350
19A0
  3
PSVPSCALE
350
19A6
  3
PUCSBASE
350
19A9
  3
PUCSORGBACK
350
19AF
  3
PUCSORGBOTTOM
350
19AB
  3
PUCSORGFRONT
350
19AE
  3
PUCSORGLEFT
350
19AC
  3
PUCSORGRIGHT
350
19AD
  3
PUCSORGTOP
350
19AA
  3
PUCSORTHOREF
350
19A7
  3
PUCSORTHOVIEW
350
19A8
  3
STYLESHEET
350
199E
  3
TSTACKALIGN
350
199B
  3
TSTACKSIZE
350
199C
  3
UCSBASE
350
19B2
  3
UCSORGBACK
350
19B8
  3
UCSORGBOTTOM
350
19B4
  3
UCSORGFRONT
350
19B7
  3
UCSORGLEFT
350
19B5
  3
UCSORGRIGHT
350
19B6
  3
UCSORGTOP
350
19B3
  3
UCSORTHOREF
350
19B0
  3
UCSORTHOVIEW
350
19B1
  3
VERSIONGUID
350
19A5
  0
DICTIONARY
  5
1936
102
{ACAD_REACTORS
330
1913
102
}
330
1913
100
AcDbDictionary
  3
SERIALNO
350
1937
  0
XRECORD
  5
19BB
102
{ACAD_REACTORS
330
19BA
102
}
330
19BA
100
AcDbXrecord
102
UCS
 74
     0
 71
     1
 10
0.0
 20
0.0
 30
0.0
 10
1.0
 20
0.0
 30
0.0
 10
0.0
 20
1.0
 30
0.0
146
0.0
 79
     0
102
VIEW
281
     0
  0
MLINESTYLE
  5
191F
102
{ACAD_REACTORS
330
191E
102
}
330
191E
100
AcDbMlineStyle
  2
Standard
 70
     0
  3

 62
   256
 51
90.0
 52
90.0
 71
     2
 49
0.5
 62
   256
  6
BYLAYER
 49
-0.5
 62
   256
  6
BYLAYER
  0
XRECORD
  5
19A3
102
{ACAD_REACTORS
330
199A
102
}
330
199A
100
AcDbXrecord
 90
        0
  0
XRECORD
  5
19B9
102
{ACAD_REACTORS
330
199A
102
}
330
199A
100
AcDbXrecord
1000
DSTYLE
1002
{
1070
    41
 40
20.0
1070
   342
340
90
1070
   271
 70
     0
1070
    44
 40
1.25
1070
    42
 40
1.0
1070
   147
 40
1.5
1070
    77
 70
     1
1070
    73
 70
     0
1070
   174
 70
     1
1070
   172
 70
     1
1070
    74
 70
     0
1070
   340
340
331
1070
   140
 40
20.0
1070
   288
 70
     1
1002
}
  0
XRECORD
  5
19A4
102
{ACAD_REACTORS
330
199A
102
}
330
199A
100
AcDbXrecord
  1
{FAEB1C30-E019-11D5-929B-00C0DF256EC4}
  0
XRECORD
  5
199D
102
{ACAD_REACTORS
330
199A
102
}
330
199A
100
AcDbXrecord
  1

  0
XRECORD
  5
19A2
102
{ACAD_REACTORS
330
199A
102
}
330
199A
100
AcDbXrecord
 90
        1
  0
XRECORD
  5
199F
102
{ACAD_REACTORS
330
199A
102
}
330
199A
100
AcDbXrecord
340
1921
  0
XRECORD
  5
19A1
102
{ACAD_REACTORS
330
199A
102
}
330
199A
100
AcDbXrecord
 90
     2560
  0
XRECORD
  5
19A0
102
{ACAD_REACTORS
330
199A
102
}
330
199A
100
AcDbXrecord
340
1920
  0
XRECORD
  5
19A6
102
{ACAD_REACTORS
330
199A
102
}
330
199A
100
AcDbXrecord
 40
0.0
  0
XRECORD
  5
19A9
102
{ACAD_REACTORS
330
199A
102
}
330
199A
100
AcDbXrecord
340
0
  0
XRECORD
  5
19AF
102
{ACAD_REACTORS
330
199A
102
}
330
199A
100
AcDbXrecord
 10
0.0
 20
0.0
 30
0.0
  0
XRECORD
  5
19AB
102
{ACAD_REACTORS
330
199A
102
}
330
199A
100
AcDbXrecord
 10
0.0
 20
0.0
 30
0.0
  0
XRECORD
  5
19AE
102
{ACAD_REACTORS
330
199A
102
}
330
199A
100
AcDbXrecord
 10
0.0
 20
0.0
 30
0.0
  0
XRECORD
  5
19AC
102
{ACAD_REACTORS
330
199A
102
}
330
199A
100
AcDbXrecord
 10
0.0
 20
0.0
 30
0.0
  0
XRECORD
  5
19AD
102
{ACAD_REACTORS
330
199A
102
}
330
199A
100
AcDbXrecord
 10
0.0
 20
0.0
 30
0.0
  0
XRECORD
  5
19AA
102
{ACAD_REACTORS
330
199A
102
}
330
199A
100
AcDbXrecord
 10
0.0
 20
0.0
 30
0.0
  0
XRECORD
  5
19A7
102
{ACAD_REACTORS
330
199A
102
}
330
199A
100
AcDbXrecord
340
0
  0
XRECORD
  5
19A8
102
{ACAD_REACTORS
330
199A
102
}
330
199A
100
AcDbXrecord
 70
     0
  0
XRECORD
  5
199E
102
{ACAD_REACTORS
330
199A
102
}
330
199A
100
AcDbXrecord
  1

  0
XRECORD
  5
199B
102
{ACAD_REACTORS
330
199A
102
}
330
199A
100
AcDbXrecord
 90
        1
  0
XRECORD
  5
199C
102
{ACAD_REACTORS
330
199A
102
}
330
199A
100
AcDbXrecord
 90
       70
  0
XRECORD
  5
19B2
102
{ACAD_REACTORS
330
199A
102
}
330
199A
100
AcDbXrecord
340
0
  0
XRECORD
  5
19B8
102
{ACAD_REACTORS
330
199A
102
}
330
199A
100
AcDbXrecord
 10
0.0
 20
0.0
 30
0.0
  0
XRECORD
  5
19B4
102
{ACAD_REACTORS
330
199A
102
}
330
199A
100
AcDbXrecord
 10
0.0
 20
0.0
 30
0.0
  0
XRECORD
  5
19B7
102
{ACAD_REACTORS
330
199A
102
}
330
199A
100
AcDbXrecord
 10
0.0
 20
0.0
 30
0.0
  0
XRECORD
  5
19B5
102
{ACAD_REACTORS
330
199A
102
}
330
199A
100
AcDbXrecord
 10
0.0
 20
0.0
 30
0.0
  0
XRECORD
  5
19B6
102
{ACAD_REACTORS
330
199A
102
}
330
199A
100
AcDbXrecord
 10
0.0
 20
0.0
 30
0.0
  0
XRECORD
  5
19B3
102
{ACAD_REACTORS
330
199A
102
}
330
199A
100
AcDbXrecord
 10
0.0
 20
0.0
 30
0.0
  0
XRECORD
  5
19B0
102
{ACAD_REACTORS
330
199A
102
}
330
199A
100
AcDbXrecord
340
0
  0
XRECORD
  5
19B1
102
{ACAD_REACTORS
330
199A
102
}
330
199A
100
AcDbXrecord
 70
     0
  0
XRECORD
  5
19A5
102
{ACAD_REACTORS
330
199A
102
}
330
199A
100
AcDbXrecord
  1
{FAEB1C32-E019-11D5-929B-00C0DF256EC4}
  0
XRECORD
  5
1937
102
{ACAD_REACTORS
330
1936
102
}
330
1936
100
AcDbXrecord
1000
rInJVR9YY4Q8hfPWdUq5j5319
1070
     4
1070
     6
  0
ENDSEC
  0
EOF
