  0
SECTION
  2
HEADER
  9
$ACADVER
  1
AC1014
  9
$ACADMAINTVER
 70
     9
  9
$DWGCODEPAGE
  3
ANSI_1250
  9
$INSBASE
 10
0.0
 20
0.0
 30
0.0
  9
$EXTMIN
 10
-362.2990404285716
 20
-1014.633537
 30
0.0
  9
$EXTMAX
 10
1166.935333
 20
190.6520353846163
 30
0.0
  9
$LIMMIN
 10
0.0
 20
0.0
  9
$LIMMAX
 10
0.0
 20
0.0
  9
$ORTHOMODE
 70
     1
  9
$REGENMODE
 70
     1
  9
$FILLMODE
 70
     1
  9
$QTEXTMODE
 70
     0
  9
$MIRRTEXT
 70
     1
  9
$DRAGMODE
 70
     2
  9
$LTSCALE
 40
1.0
  9
$OSMODE
 70
    37
  9
$ATTMODE
 70
     1
  9
$TEXTSIZE
 40
0.2
  9
$TRACEWID
 40
0.05
  9
$TEXTSTYLE
  7
ED15
  9
$CLAYER
  8
V0-OBRYS
  9
$CELTYPE
  6
CONTINUOUS
  9
$CECOLOR
 62
    90
  9
$CELTSCALE
 40
1.0
  9
$DELOBJ
 70
     1
  9
$DISPSILH
 70
     0
  9
$DIMSCALE
 40
1.0
  9
$DIMASZ
 40
15.0
  9
$DIMEXO
 40
1.0
  9
$DIMDLI
 40
0.38
  9
$DIMRND
 40
0.0
  9
$DIMDLE
 40
0.0
  9
$DIMEXE
 40
1.25
  9
$DIMTP
 40
0.0
  9
$DIMTM
 40
0.0
  9
$DIMTXT
 40
10.0
  9
$DIMCEN
 40
0.09
  9
$DIMTSZ
 40
0.0
  9
$DIMTOL
 70
     0
  9
$DIMLIM
 70
     0
  9
$DIMTIH
 70
     0
  9
$DIMTOH
 70
     0
  9
$DIMSE1
 70
     0
  9
$DIMSE2
 70
     0
  9
$DIMTAD
 70
     1
  9
$DIMZIN
 70
     0
  9
$DIMBLK
  1
OPEN
  9
$DIMASO
 70
     1
  9
$DIMSHO
 70
     1
  9
$DIMPOST
  1

  9
$DIMAPOST
  1

  9
$DIMALT
 70
     0
  9
$DIMALTD
 70
     2
  9
$DIMALTF
 40
25.4
  9
$DIMLFAC
 40
1.0
  9
$DIMTOFL
 70
     1
  9
$DIMTVP
 40
0.0
  9
$DIMTIX
 70
     1
  9
$DIMSOXD
 70
     0
  9
$DIMSAH
 70
     0
  9
$DIMBLK1
  1

  9
$DIMBLK2
  1

  9
$DIMSTYLE
  2
ED10
  9
$DIMCLRD
 70
     0
  9
$DIMCLRE
 70
     0
  9
$DIMCLRT
 70
     0
  9
$DIMTFAC
 40
1.0
  9
$DIMGAP
 40
1.5
  9
$DIMJUST
 70
     0
  9
$DIMSD1
 70
     0
  9
$DIMSD2
 70
     0
  9
$DIMTOLJ
 70
     1
  9
$DIMTZIN
 70
     0
  9
$DIMALTZ
 70
     0
  9
$DIMALTTZ
 70
     0
  9
$DIMFIT
 70
     3
  9
$DIMUPT
 70
     1
  9
$DIMUNIT
 70
     2
  9
$DIMDEC
 70
     0
  9
$DIMTDEC
 70
     4
  9
$DIMALTU
 70
     2
  9
$DIMALTTD
 70
     2
  9
$DIMTXSTY
  7
ED20
  9
$DIMAUNIT
 70
     0
  9
$LUNITS
 70
     2
  9
$LUPREC
 70
     4
  9
$SKETCHINC
 40
0.1
  9
$FILLETRAD
 40
0.5
  9
$AUNITS
 70
     0
  9
$AUPREC
 70
     0
  9
$MENU
  1
.
  9
$ELEVATION
 40
0.0
  9
$PELEVATION
 40
0.0
  9
$THICKNESS
 40
0.0
  9
$LIMCHECK
 70
     0
  9
$BLIPMODE
 70
     0
  9
$CHAMFERA
 40
0.5
  9
$CHAMFERB
 40
0.5
  9
$CHAMFERC
 40
1.0
  9
$CHAMFERD
 40
0.0
  9
$SKPOLY
 70
     0
  9
$TDCREATE
 40
2455644.631483831
  9
$TDUPDATE
 40
2455644.631483843
  9
$TDINDWG
 40
0.0000000116
  9
$TDUSRTIMER
 40
0.0000000116
  9
$USRTIMER
 70
     1
  9
$ANGBASE
 50
0.0
  9
$ANGDIR
 70
     0
  9
$PDMODE
 70
     3
  9
$PDSIZE
 40
20.0
  9
$PLINEWID
 40
0.0
  9
$COORDS
 70
     1
  9
$SPLFRAME
 70
     0
  9
$SPLINETYPE
 70
     6
  9
$SPLINESEGS
 70
     8
  9
$ATTDIA
 70
     0
  9
$ATTREQ
 70
     1
  9
$HANDLING
 70
     1
  9
$HANDSEED
  5
1996
  9
$SURFTAB1
 70
     6
  9
$SURFTAB2
 70
     6
  9
$SURFTYPE
 70
     6
  9
$SURFU
 70
     6
  9
$SURFV
 70
     6
  9
$UCSNAME
  2

  9
$UCSORG
 10
0.0
 20
0.0
 30
0.0
  9
$UCSXDIR
 10
1.0
 20
0.0
 30
0.0
  9
$UCSYDIR
 10
0.0
 20
1.0
 30
0.0
  9
$PUCSNAME
  2

  9
$PUCSORG
 10
0.0
 20
0.0
 30
0.0
  9
$PUCSXDIR
 10
1.0
 20
0.0
 30
0.0
  9
$PUCSYDIR
 10
0.0
 20
1.0
 30
0.0
  9
$USERI1
 70
     0
  9
$USERI2
 70
     0
  9
$USERI3
 70
     0
  9
$USERI4
 70
     0
  9
$USERI5
 70
     0
  9
$USERR1
 40
0.0
  9
$USERR2
 40
0.0
  9
$USERR3
 40
0.0
  9
$USERR4
 40
0.0
  9
$USERR5
 40
0.0
  9
$WORLDVIEW
 70
     1
  9
$SHADEDGE
 70
     3
  9
$SHADEDIF
 70
    70
  9
$TILEMODE
 70
     1
  9
$MAXACTVP
 70
    64
  9
$PINSBASE
 10
0.0
 20
0.0
 30
0.0
  9
$PLIMCHECK
 70
     0
  9
$PEXTMIN
 10
1.000000000000000E+20
 20
1.000000000000000E+20
 30
1.000000000000000E+20
  9
$PEXTMAX
 10
-1.000000000000000E+20
 20
-1.000000000000000E+20
 30
-1.000000000000000E+20
  9
$PLIMMIN
 10
0.0
 20
0.0
  9
$PLIMMAX
 10
0.0
 20
0.0
  9
$UNITMODE
 70
     0
  9
$VISRETAIN
 70
     1
  9
$PLINEGEN
 70
     0
  9
$PSLTSCALE
 70
     1
  9
$TREEDEPTH
 70
  3020
  9
$PICKSTYLE
 70
     1
  9
$CMLSTYLE
  2
STANDARD
  9
$CMLJUST
 70
     0
  9
$CMLSCALE
 40
1.0
  9
$PROXYGRAPHICS
 70
     1
  9
$MEASUREMENT
 70
     0
  0
ENDSEC
  0
SECTION
  2
CLASSES
  0
CLASS
  1
ACDBDICTIONARYWDFLT
  2
AcDbDictionaryWithDefault
  3
ObjectDBX Classes
 90
        0
280
     0
281
     0
  0
CLASS
  1
XRECORD
  2
AcDbXrecord
  3
AutoCAD 2000
 90
        0
280
     0
281
     0
  0
CLASS
  1
LWPOLYLINE
  2
AcDbPolyline
  3
AutoCAD 2000
 90
        0
280
     0
281
     1
  0
CLASS
  1
HATCH
  2
AcDbHatch
  3
AutoCAD 2000
 90
        0
280
     0
281
     1
  0
CLASS
  1
ACDBPLACEHOLDER
  2
AcDbPlaceHolder
  3
ObjectDBX Classes
 90
        0
280
     0
281
     0
  0
CLASS
  1
LAYOUT
  2
AcDbLayout
  3
ObjectDBX Classes
 90
        0
280
     0
281
     0
  0
ENDSEC
  0
SECTION
  2
TABLES
  0
TABLE
  2
VPORT
  5
18E9
330
0
100
AcDbSymbolTable
 70
     2
  0
VPORT
  5
190A
102
{ACAD_XDICTIONARY
360
1994
102
}
330
18E9
100
AcDbSymbolTableRecord
100
AcDbViewportTableRecord
  2
*ACTIVE
 70
     0
 10
0.0
 20
0.0
 11
1.0
 21
1.0
 12
461.222911
 22
-344.938099
 13
0.0
 23
0.0
 14
10.0
 24
10.0
 15
10.0
 25
10.0
 16
0.0
 26
0.0
 36
1.0
 17
0.0
 27
0.0
 37
0.0
 40
1496.653421
 41
0.0118643077325067
 42
50.0
 43
0.0
 44
0.0
 50
0.0
 51
0.0000000000007958
 71
     0
 72
   100
 73
     1
 74
     3
 75
     0
 76
     0
 77
     0
 78
     0
  0
ENDTAB
  0
TABLE
  2
LTYPE
  5
18E6
330
0
100
AcDbSymbolTable
 70
    25
  0
LTYPE
  5
18F5
330
18E6
100
AcDbSymbolTableRecord
100
AcDbLinetypeTableRecord
  2
BYBLOCK
 70
     0
  3

 72
    65
 73
     0
 40
0.0
  0
LTYPE
  5
18F6
330
18E6
100
AcDbSymbolTableRecord
100
AcDbLinetypeTableRecord
  2
BYLAYER
 70
     0
  3

 72
    65
 73
     0
 40
0.0
  0
LTYPE
  5
18F7
330
18E6
100
AcDbSymbolTableRecord
100
AcDbLinetypeTableRecord
  2
CONTINUOUS
 70
     0
  3
Solid line
 72
    65
 73
     0
 40
0.0
  0
LTYPE
  5
1912
330
18E6
100
AcDbSymbolTableRecord
100
AcDbLinetypeTableRecord
  2
CENTER
 70
     0
  3
Center ____ _ ____ _ ____ _ ____ _ ____ _ ____
 72
    65
 73
     4
 40
2.0
 49
1.25
 74
     0
 49
-0.25
 74
     0
 49
0.25
 74
     0
 49
-0.25
 74
     0
  0
LTYPE
  5
1913
330
18E6
100
AcDbSymbolTableRecord
100
AcDbLinetypeTableRecord
  2
DASHDOT
 70
     0
  3
Dashdot __ . __ . __ . __ . __ . __ . __ . __
 72
    65
 73
     4
 40
1.0
 49
0.5
 74
     0
 49
-0.25
 74
     0
 49
0.0
 74
     0
 49
-0.25
 74
     0
  0
LTYPE
  5
1914
330
18E6
100
AcDbSymbolTableRecord
100
AcDbLinetypeTableRecord
  2
DASHED
 70
     0
  3
Dashed __ __ __ __ __ __ __ __ __ __ __ __ __ _
 72
    65
 73
     2
 40
0.75
 49
0.5
 74
     0
 49
-0.25
 74
     0
  0
LTYPE
  5
1915
330
18E6
100
AcDbSymbolTableRecord
100
AcDbLinetypeTableRecord
  2
HIDDEN
 70
     0
  3
Hidden __ __ __ __ __ __ __ __ __ __ __ __ __ __
 72
    65
 73
     2
 40
0.375
 49
0.25
 74
     0
 49
-0.125
 74
     0
  0
LTYPE
  5
1916
330
18E6
100
AcDbSymbolTableRecord
100
AcDbLinetypeTableRecord
  2
HIDDEN2
 70
     0
  3
Hidden2 _ _ _ _ _ _ _ _ _ _ _ _ _ _ _ _ _ 
 72
    65
 73
     2
 40
0.1875
 49
0.125
 74
     0
 49
-0.0625
 74
     0
  0
LTYPE
  5
1917
330
18E6
100
AcDbSymbolTableRecord
100
AcDbLinetypeTableRecord
  2
BORDER
 70
     0
  3
Border __ __ . __ __ . __ __ . __ __ . __ __ .
 72
    65
 73
     6
 40
1.75
 49
0.5
 74
     0
 49
-0.25
 74
     0
 49
0.5
 74
     0
 49
-0.25
 74
     0
 49
0.0
 74
     0
 49
-0.25
 74
     0
  0
LTYPE
  5
1918
330
18E6
100
AcDbSymbolTableRecord
100
AcDbLinetypeTableRecord
  2
BORDER2
 70
     0
  3
Border2 __.__.__.__.__.__.__.__.__.__.__.
 72
    65
 73
     6
 40
0.875
 49
0.25
 74
     0
 49
-0.125
 74
     0
 49
0.25
 74
     0
 49
-0.125
 74
     0
 49
0.0
 74
     0
 49
-0.125
 74
     0
  0
LTYPE
  5
1919
330
18E6
100
AcDbSymbolTableRecord
100
AcDbLinetypeTableRecord
  2
BORDERX2
 70
     0
  3
Borderx2  ____  ____  .  ____  ____  .  ___
 72
    65
 73
     6
 40
3.5
 49
1.0
 74
     0
 49
-0.5
 74
     0
 49
1.0
 74
     0
 49
-0.5
 74
     0
 49
0.0
 74
     0
 49
-0.5
 74
     0
  0
LTYPE
  5
191A
330
18E6
100
AcDbSymbolTableRecord
100
AcDbLinetypeTableRecord
  2
CENTER2
 70
     0
  3
Center2  ___ _ ___ _ ___ _ ___ _ ___ _ ___
 72
    65
 73
     4
 40
1.125
 49
0.75
 74
     0
 49
-0.125
 74
     0
 49
0.125
 74
     0
 49
-0.125
 74
     0
  0
LTYPE
  5
191B
330
18E6
100
AcDbSymbolTableRecord
100
AcDbLinetypeTableRecord
  2
CENTERX2
 70
     0
  3
Centerx2  ________  __  ________  __  _____
 72
    65
 73
     4
 40
4.0
 49
2.5
 74
     0
 49
-0.5
 74
     0
 49
0.5
 74
     0
 49
-0.5
 74
     0
  0
LTYPE
  5
191C
330
18E6
100
AcDbSymbolTableRecord
100
AcDbLinetypeTableRecord
  2
DASHDOT2
 70
     0
  3
Dashdot2  _._._._._._._._._._._._._._._.
 72
    65
 73
     4
 40
0.5
 49
0.25
 74
     0
 49
-0.125
 74
     0
 49
0.0
 74
     0
 49
-0.125
 74
     0
  0
LTYPE
  5
191D
330
18E6
100
AcDbSymbolTableRecord
100
AcDbLinetypeTableRecord
  2
DASHDOTX2
 70
     0
  3
Dashdotx2 ____  .  ____  .  ____  .  ___
 72
    65
 73
     4
 40
2.0
 49
1.0
 74
     0
 49
-0.5
 74
     0
 49
0.0
 74
     0
 49
-0.5
 74
     0
  0
LTYPE
  5
191E
330
18E6
100
AcDbSymbolTableRecord
100
AcDbLinetypeTableRecord
  2
DASHED2
 70
     0
  3
Dashed2 _ _ _ _ _ _ _ _ _ _ _ _ _ _ _ _ _ 
 72
    65
 73
     2
 40
0.375
 49
0.25
 74
     0
 49
-0.125
 74
     0
  0
LTYPE
  5
191F
330
18E6
100
AcDbSymbolTableRecord
100
AcDbLinetypeTableRecord
  2
DASHEDX2
 70
     0
  3
Dashedx2 ____  ____  ____  ____  ____  ___
 72
    65
 73
     2
 40
1.5
 49
1.0
 74
     0
 49
-0.5
 74
     0
  0
LTYPE
  5
1920
330
18E6
100
AcDbSymbolTableRecord
100
AcDbLinetypeTableRecord
  2
DIVIDE
 70
     0
  3
Divide ____ . . ____ . . ____ . . ____ . . ____
 72
    65
 73
     6
 40
1.25
 49
0.5
 74
     0
 49
-0.25
 74
     0
 49
0.0
 74
     0
 49
-0.25
 74
     0
 49
0.0
 74
     0
 49
-0.25
 74
     0
  0
LTYPE
  5
1921
330
18E6
100
AcDbSymbolTableRecord
100
AcDbLinetypeTableRecord
  2
DIVIDE2
 70
     0
  3
Divide2 __..__..__..__..__..__..__..__.._
 72
    65
 73
     6
 40
0.625
 49
0.25
 74
     0
 49
-0.125
 74
     0
 49
0.0
 74
     0
 49
-0.125
 74
     0
 49
0.0
 74
     0
 49
-0.125
 74
     0
  0
LTYPE
  5
1922
330
18E6
100
AcDbSymbolTableRecord
100
AcDbLinetypeTableRecord
  2
DIVIDEX2
 70
     0
  3
Dividex2 ________  .  .  ________  .  .  _
 72
    65
 73
     6
 40
2.5
 49
1.0
 74
     0
 49
-0.5
 74
     0
 49
0.0
 74
     0
 49
-0.5
 74
     0
 49
0.0
 74
     0
 49
-0.5
 74
     0
  0
LTYPE
  5
1923
330
18E6
100
AcDbSymbolTableRecord
100
AcDbLinetypeTableRecord
  2
DOT
 70
     0
  3
Dot . . . . . . . . . . . . . . . . . . . . . . . .
 72
    65
 73
     2
 40
0.25
 49
0.0
 74
     0
 49
-0.25
 74
     0
  0
LTYPE
  5
1924
330
18E6
100
AcDbSymbolTableRecord
100
AcDbLinetypeTableRecord
  2
DOT2
 70
     0
  3
Dot2 ........................................
 72
    65
 73
     2
 40
0.125
 49
0.0
 74
     0
 49
-0.125
 74
     0
  0
LTYPE
  5
1925
330
18E6
100
AcDbSymbolTableRecord
100
AcDbLinetypeTableRecord
  2
DOTX2
 70
     0
  3
Dotx2 .  .  .  .  .  .  .  .  .  .  .  .  .  .
 72
    65
 73
     2
 40
0.5
 49
0.0
 74
     0
 49
-0.5
 74
     0
  0
LTYPE
  5
1926
330
18E6
100
AcDbSymbolTableRecord
100
AcDbLinetypeTableRecord
  2
HIDDENX2
 70
     0
  3
Hiddenx2 ____ ____ ____ ____ ____ ____ ____ 
 72
    65
 73
     2
 40
0.75
 49
0.5
 74
     0
 49
-0.25
 74
     0
  0
LTYPE
  5
1927
330
18E6
100
AcDbSymbolTableRecord
100
AcDbLinetypeTableRecord
  2
PHANTOM
 70
     0
  3
Phantom ______  __  __  ______  __  __  ______ 
 72
    65
 73
     6
 40
2.5
 49
1.25
 74
     0
 49
-0.25
 74
     0
 49
0.25
 74
     0
 49
-0.25
 74
     0
 49
0.25
 74
     0
 49
-0.25
 74
     0
  0
LTYPE
  5
1928
330
18E6
100
AcDbSymbolTableRecord
100
AcDbLinetypeTableRecord
  2
PHANTOM2
 70
     0
  3
Phantom2 ___ _ _ ___ _ _ ___ _ _ ___ _ _
 72
    65
 73
     6
 40
1.25
 49
0.625
 74
     0
 49
-0.125
 74
     0
 49
0.125
 74
     0
 49
-0.125
 74
     0
 49
0.125
 74
     0
 49
-0.125
 74
     0
  0
LTYPE
  5
1929
330
18E6
100
AcDbSymbolTableRecord
100
AcDbLinetypeTableRecord
  2
PHANTOMX2
 70
     0
  3
Phantomx2 ____________    ____    ____   _
 72
    65
 73
     6
 40
5.0
 49
2.5
 74
     0
 49
-0.5
 74
     0
 49
0.5
 74
     0
 49
-0.5
 74
     0
 49
0.5
 74
     0
 49
-0.5
 74
     0
  0
ENDTAB
  0
TABLE
  2
LAYER
  5
18E3
330
0
100
AcDbSymbolTable
 70
     6
  0
LAYER
  5
18F1
330
18E3
100
AcDbSymbolTableRecord
100
AcDbLayerTableRecord
  2
0
 70
     0
 62
     7
  6
CONTINUOUS
  0
LAYER
  5
9E
330
18E3
100
AcDbSymbolTableRecord
100
AcDbLayerTableRecord
  2
DEFPOINTS
 70
     0
 62
     7
  6
CONTINUOUS
  0
LAYER
  5
377
330
18E3
100
AcDbSymbolTableRecord
100
AcDbLayerTableRecord
  2
V0-OBRYS
 70
     0
 62
    90
  6
CONTINUOUS
  0
LAYER
  5
378
330
18E3
100
AcDbSymbolTableRecord
100
AcDbLayerTableRecord
  2
V0-VYPLNE
 70
     0
 62
    63
  6
DASHDOT
  0
LAYER
  5
37A
330
18E3
100
AcDbSymbolTableRecord
100
AcDbLayerTableRecord
  2
V0-NAZVY
 70
     0
 62
   210
  6
CONTINUOUS
  0
LAYER
  5
559
330
18E3
100
AcDbSymbolTableRecord
100
AcDbLayerTableRecord
  2
V0-ZBYTEK
 70
     0
 62
    51
  6
CONTINUOUS
  0
ENDTAB
  0
TABLE
  2
STYLE
  5
18E4
330
0
100
AcDbSymbolTable
 70
     6
  0
STYLE
  5
18F2
330
18E4
100
AcDbSymbolTableRecord
100
AcDbTextStyleTableRecord
  2
STANDARD
 70
     0
 40
0.0
 41
1.0
 50
0.0
 71
     0
 42
0.2
  3
ISOCP.shx
  4

1001
ACAD
1000
ISOCP.shx
1071
        0
  0
STYLE
  5
331
330
18E4
100
AcDbSymbolTableRecord
100
AcDbTextStyleTableRecord
  2
ED20
 70
     0
 40
20.0
 41
1.0
 50
0.0
 71
     0
 42
0.2
  3
ISOCP.shx
  4

1001
ACAD
1000
ISOCP.shx
1071
        0
  0
STYLE
  5
648
330
18E4
100
AcDbSymbolTableRecord
100
AcDbTextStyleTableRecord
  2
ED10
 70
     0
 40
10.0
 41
1.0
 50
0.0
 71
     0
 42
0.2
  3
ISOCP.shx
  4

1001
ACAD
1000
ISOCP.shx
1071
        0
  0
STYLE
  5
F38
330
18E4
100
AcDbSymbolTableRecord
100
AcDbTextStyleTableRecord
  2
ED30
 70
     0
 40
30.0
 41
1.0
 50
0.0
 71
     0
 42
0.2
  3
ISOCP.shx
  4

1001
ACAD
1000
ISOCP.shx
1071
        0
  0
STYLE
  5
F39
330
18E4
100
AcDbSymbolTableRecord
100
AcDbTextStyleTableRecord
  2
ED40
 70
     0
 40
40.0
 41
1.0
 50
0.0
 71
     0
 42
0.2
  3
ISOCP.shx
  4

1001
ACAD
1000
ISOCP.shx
1071
        0
  0
STYLE
  5
17AA
330
18E4
100
AcDbSymbolTableRecord
100
AcDbTextStyleTableRecord
  2
ED15
 70
     0
 40
30.0
 41
1.0
 50
0.0
 71
     0
 42
0.2
  3
ISOCP.shx
  4

1001
ACAD
1000
ISOCP.shx
1071
        0
  0
ENDTAB
  0
TABLE
  2
VIEW
  5
18E7
330
0
100
AcDbSymbolTable
 70
     0
  0
ENDTAB
  0
TABLE
  2
UCS
  5
18E8
330
0
100
AcDbSymbolTable
 70
     0
  0
ENDTAB
  0
TABLE
  2
APPID
  5
18EA
330
0
100
AcDbSymbolTable
 70
     6
  0
APPID
  5
18F3
330
18EA
100
AcDbSymbolTableRecord
100
AcDbRegAppTableRecord
  2
ACAD
 70
     0
  0
APPID
  5
190B
330
18EA
100
AcDbSymbolTableRecord
100
AcDbRegAppTableRecord
  2
VD_INVISIBLE_NOT_FOR_READ
 70
     0
  0
APPID
  5
190C
330
18EA
100
AcDbSymbolTableRecord
100
AcDbRegAppTableRecord
  2
VD_TEMPHATCH
 70
     0
  0
APPID
  5
190D
330
18EA
100
AcDbSymbolTableRecord
100
AcDbRegAppTableRecord
  2
VDEXTRAPARAM
 70
     0
  0
APPID
  5
190E
330
18EA
100
AcDbSymbolTableRecord
100
AcDbRegAppTableRecord
  2
PE_URL
 70
     0
  0
APPID
  5
190F
330
18EA
100
AcDbSymbolTableRecord
100
AcDbRegAppTableRecord
  2
VD_UNKNOWN
 70
     0
  0
ENDTAB
  0
TABLE
  2
DIMSTYLE
  5
18EB
330
0
100
AcDbSymbolTable
 70
     5
  0
DIMSTYLE
105
1908
330
18EB
100
AcDbSymbolTableRecord
100
AcDbDimStyleTableRecord
  2
STANDARD
 70
     0
  3

  4

  5
OPEN
  6

  7

 40
1.0
 41
15.0
 42
0.625
 43
0.38
 44
1.25
 45
0.0
 46
0.0
 47
0.0
 48
0.0
140
15.0
141
0.09
142
0.0
143
25.4
144
1.0
145
0.0
146
1.0
147
3.0
 71
     0
 72
     0
 73
     0
 74
     0
 75
     0
 76
     0
 77
     1
 78
     0
170
     0
171
     2
172
     1
173
     0
174
     1
175
     0
176
     0
177
     0
178
     0
270
     2
271
     0
272
     4
273
     2
274
     2
340
331
275
     0
280
     0
281
     0
282
     0
283
     1
284
     0
285
     0
286
     0
287
     3
288
     1
  0
DIMSTYLE
105
397
330
18EB
100
AcDbSymbolTableRecord
100
AcDbDimStyleTableRecord
  2
ED40
 70
     0
  3

  4

  5
OPEN
  6

  7

 40
1.0
 41
35.0
 42
1.0
 43
0.38
 44
1.25
 45
0.0
 46
0.0
 47
0.0
 48
0.0
140
40.0
141
0.09
142
0.0
143
25.4
144
1.0
145
0.0
146
1.0
147
4.0
 71
     0
 72
     0
 73
     0
 74
     0
 75
     0
 76
     0
 77
     1
 78
     0
170
     0
171
     2
172
     1
173
     0
174
     1
175
     0
176
     0
177
     0
178
     0
270
     2
271
     0
272
     4
273
     2
274
     2
340
F39
275
     0
280
     0
281
     0
282
     0
283
     1
284
     0
285
     0
286
     0
287
     3
288
     1
  0
DIMSTYLE
105
FEA
330
18EB
100
AcDbSymbolTableRecord
100
AcDbDimStyleTableRecord
  2
ED30
 70
     0
  3

  4

  5
OPEN
  6

  7

 40
1.0
 41
25.0
 42
1.0
 43
0.38
 44
1.25
 45
0.0
 46
0.0
 47
0.0
 48
0.0
140
30.0
141
0.09
142
0.0
143
25.4
144
1.0
145
0.0
146
1.0
147
4.0
 71
     0
 72
     0
 73
     0
 74
     0
 75
     0
 76
     0
 77
     1
 78
     0
170
     0
171
     2
172
     1
173
     0
174
     1
175
     0
176
     0
177
     0
178
     0
270
     2
271
     0
272
     4
273
     2
274
     2
340
F38
275
     0
280
     0
281
     0
282
     0
283
     1
284
     0
285
     0
286
     0
287
     3
288
     1
  0
DIMSTYLE
105
1457
330
18EB
100
AcDbSymbolTableRecord
100
AcDbDimStyleTableRecord
  2
ED20
 70
     0
  3

  4

  5
OPEN
  6

  7

 40
1.0
 41
20.0
 42
1.0
 43
0.38
 44
1.25
 45
0.0
 46
0.0
 47
0.0
 48
0.0
140
20.0
141
0.09
142
0.0
143
25.4
144
1.0
145
0.0
146
1.0
147
1.5
 71
     0
 72
     0
 73
     0
 74
     0
 75
     0
 76
     0
 77
     1
 78
     0
170
     0
171
     2
172
     1
173
     0
174
     1
175
     0
176
     0
177
     0
178
     0
270
     2
271
     0
272
     4
273
     2
274
     2
340
331
275
     0
280
     0
281
     0
282
     0
283
     1
284
     0
285
     0
286
     0
287
     3
288
     1
  0
DIMSTYLE
105
1458
102
{ACAD_REACTORS
330
1469
330
1476
330
1483
330
14CC
330
14E4
102
}
330
18EB
100
AcDbSymbolTableRecord
100
AcDbDimStyleTableRecord
  2
ED10
 70
     0
  3

  4

  5
OPEN
  6

  7

 40
1.0
 41
15.0
 42
1.0
 43
0.38
 44
1.25
 45
0.0
 46
0.0
 47
0.0
 48
0.0
140
10.0
141
0.09
142
0.0
143
25.4
144
1.0
145
0.0
146
1.0
147
1.5
 71
     0
 72
     0
 73
     0
 74
     0
 75
     0
 76
     0
 77
     1
 78
     0
170
     0
171
     2
172
     1
173
     0
174
     1
175
     0
176
     0
177
     0
178
     0
270
     2
271
     0
272
     4
273
     2
274
     2
340
331
275
     0
280
     0
281
     0
282
     0
283
     1
284
     0
285
     0
286
     0
287
     3
288
     1
  0
ENDTAB
  0
TABLE
  2
BLOCK_RECORD
  5
18E2
330
0
100
AcDbSymbolTable
 70
    10
  0
BLOCK_RECORD
  5
1900
330
18E2
100
AcDbSymbolTableRecord
100
AcDbBlockTableRecord
  2
*MODEL_SPACE
  0
BLOCK_RECORD
  5
18FC
330
18E2
100
AcDbSymbolTableRecord
100
AcDbBlockTableRecord
  2
*PAPER_SPACE
  0
BLOCK_RECORD
  5
90
330
18E2
100
AcDbSymbolTableRecord
100
AcDbBlockTableRecord
  2
_OPEN
  0
BLOCK_RECORD
  5
1459
330
18E2
100
AcDbSymbolTableRecord
100
AcDbBlockTableRecord
  2
A10_100
  0
BLOCK_RECORD
  5
18DE
330
18E2
100
AcDbSymbolTableRecord
100
AcDbBlockTableRecord
  2
VDDIM_DEFAULT
  0
BLOCK_RECORD
  5
18E0
330
18E2
100
AcDbSymbolTableRecord
100
AcDbBlockTableRecord
  2
VDDIM_NONE
  0
BLOCK_RECORD
  5
1933
330
18E2
100
AcDbSymbolTableRecord
100
AcDbBlockTableRecord
  2
*D5
  0
BLOCK_RECORD
  5
1940
330
18E2
100
AcDbSymbolTableRecord
100
AcDbBlockTableRecord
  2
*D6
  0
BLOCK_RECORD
  5
194D
330
18E2
100
AcDbSymbolTableRecord
100
AcDbBlockTableRecord
  2
*D7
  0
BLOCK_RECORD
  5
195A
330
18E2
100
AcDbSymbolTableRecord
100
AcDbBlockTableRecord
  2
*D8
  0
BLOCK_RECORD
  5
1966
330
18E2
100
AcDbSymbolTableRecord
100
AcDbBlockTableRecord
  2
*D9
  0
ENDTAB
  0
ENDSEC
  0
SECTION
  2
BLOCKS
  0
BLOCK
  5
1901
330
1900
100
AcDbEntity
  8
0
100
AcDbBlockBegin
  2
*MODEL_SPACE
 70
     0
 71
     0
 10
0.0
 20
0.0
 30
0.0
  3
*MODEL_SPACE
  1

  0
ENDBLK
  5
1902
330
1900
100
AcDbEntity
  8
0
100
AcDbBlockEnd
  0
BLOCK
  5
18FD
330
18FC
100
AcDbEntity
 67
     1
  8
0
100
AcDbBlockBegin
  2
*PAPER_SPACE
 70
     0
 71
     0
 10
0.0
 20
0.0
 30
0.0
  3
*PAPER_SPACE
  1

  0
ENDBLK
  5
18FE
330
18FC
100
AcDbEntity
 67
     1
  8
0
100
AcDbBlockEnd
  0
BLOCK
  5
192A
330
90
100
AcDbEntity
  8
0
100
AcDbBlockBegin
  2
_OPEN
 70
     0
 71
     0
 10
0.0
 20
0.0
 30
0.0
  3
_OPEN
  1

  0
LINE
  5
92
330
90
100
AcDbEntity
  8
0
  6
BYBLOCK
 62
     0
100
AcDbLine
 10
-1.0
 20
0.166667
 30
0.0
 11
0.0
 21
0.0
 31
0.0
  0
LINE
  5
93
330
90
100
AcDbEntity
  8
0
  6
BYBLOCK
 62
     0
100
AcDbLine
 10
0.0
 20
0.0
 30
0.0
 11
-1.0
 21
-0.166667
 31
0.0
  0
LINE
  5
94
330
90
100
AcDbEntity
  8
0
  6
BYBLOCK
 62
     0
100
AcDbLine
 10
0.0
 20
0.0
 30
0.0
 11
-1.0
 21
0.0
 31
0.0
  0
ENDBLK
  5
192B
330
90
100
AcDbEntity
  8
0
100
AcDbBlockEnd
  0
BLOCK
  5
192C
330
1459
100
AcDbEntity
  8
0
100
AcDbBlockBegin
  2
A10_100
 70
     0
 71
     0
 10
0.0
 20
0.0
 30
0.0
  3
A10_100
  1

  0
ENDBLK
  5
192D
330
1459
100
AcDbEntity
  8
0
100
AcDbBlockEnd
  0
BLOCK
  5
192E
330
18DE
100
AcDbEntity
  8
0
100
AcDbBlockBegin
  2
VDDIM_DEFAULT
 70
     0
 71
     0
 10
0.0
 20
0.0
 30
0.0
  3
VDDIM_DEFAULT
  1

  0
LWPOLYLINE
  5
18DF
330
18DE
100
AcDbEntity
  8
0
  6
CONTINUOUS
 62
     0
100
AcDbPolyline
 90
        4
 70
     0
 43
0.0
 10
0.0
 20
0.0
 10
-1.0
 20
-0.1665
 10
-1.0
 20
0.1665
 10
0.0
 20
0.0
1001
VDEXTRAPARAM
1071
        1
1071
        0
1071
        0
1040
1.0
1000

1000

1040
0.0
1040
0.0
  0
HATCH
  5
1932
330
18DE
100
AcDbEntity
  8
0
  6
CONTINUOUS
 62
     0
100
AcDbHatch
 10
0.0
 20
0.0
 30
0.0
210
0.0
220
0.0
230
1.0
  2
SOLID
 70
     1
 71
     0
 91
        1
 92
        2
 72
     0
 73
     1
 93
        3
 10
0.0
 20
0.0
 10
-1.0
 20
-0.1665
 10
-1.0
 20
0.1665
 97
        0
 75
     0
 76
     1
 98
        1
 10
0.0
 20
0.0
1001
VDEXTRAPARAM
1071
        1
1071
        0
1071
        0
1040
1.0
1000

1000

1040
0.0
1040
0.0
1001
VD_TEMPHATCH
1000
VD_TEMPHATCH
  0
ENDBLK
  5
192F
330
18DE
100
AcDbEntity
  8
0
100
AcDbBlockEnd
  0
BLOCK
  5
1930
330
18E0
100
AcDbEntity
  8
0
100
AcDbBlockBegin
  2
VDDIM_NONE
 70
     0
 71
     0
 10
0.0
 20
0.0
 30
0.0
  3
VDDIM_NONE
  1

  0
ENDBLK
  5
1931
330
18E0
100
AcDbEntity
  8
0
100
AcDbBlockEnd
  0
BLOCK
  5
193E
330
1933
100
AcDbEntity
  8
0
100
AcDbBlockBegin
  2
*D5
 70
     1
 71
     0
 10
0.0
 20
0.0
 30
0.0
  3
*D5
  1

  0
LINE
  5
1934
330
1933
100
AcDbEntity
  8
V0-VYPLNE
 62
     0
100
AcDbLine
 10
81.141239
 20
-277.166006
 30
0.0
 11
81.14123899999999
 21
-325.6087360000092
 31
0.0
  0
LINE
  5
1935
330
1933
100
AcDbEntity
  8
V0-VYPLNE
 62
     0
100
AcDbLine
 10
331.141239
 20
-277.166006
 30
0.0
 11
331.141239
 21
-325.6087360000092
 31
0.0
  0
LINE
  5
1936
330
1933
100
AcDbEntity
  8
V0-VYPLNE
 62
     0
100
AcDbLine
 10
96.14123899999999
 20
-324.3587360000092
 30
0.0
 11
187.2602866190476
 21
-324.3587360000092
 31
0.0
  0
LINE
  5
1937
330
1933
100
AcDbEntity
  8
V0-VYPLNE
 62
     0
100
AcDbLine
 10
316.141239
 20
-324.3587360000092
 30
0.0
 11
225.0221913809524
 21
-324.3587360000092
 31
0.0
  0
INSERT
  5
1938
330
1933
100
AcDbEntity
  8
V0-VYPLNE
 62
     0
100
AcDbBlockReference
  2
_OPEN
 10
81.14123899999999
 20
-324.3587360000092
 30
0.0
 41
15.0
 42
15.0
 43
15.0
 50
180.0
  0
INSERT
  5
1939
330
1933
100
AcDbEntity
  8
V0-VYPLNE
 62
     0
100
AcDbBlockReference
  2
_OPEN
 10
331.141239
 20
-324.3587360000092
 30
0.0
 41
15.0
 42
15.0
 43
15.0
  0
MTEXT
  5
193A
330
1933
100
AcDbEntity
  8
V0-VYPLNE
 62
     0
100
AcDbMText
 10
206.141239
 20
-324.358736
 30
0.0
 40
10.0
 41
0.0
 71
     5
 72
     1
  1
%%c\A1;250
  7
ED20
  0
POINT
  5
193B
330
1933
100
AcDbEntity
  8
DEFPOINTS
 62
     0
100
AcDbPoint
 10
81.141239
 20
-276.166006
 30
0.0
  0
POINT
  5
193C
330
1933
100
AcDbEntity
  8
DEFPOINTS
 62
     0
100
AcDbPoint
 10
331.141239
 20
-276.166006
 30
0.0
  0
POINT
  5
193D
330
1933
100
AcDbEntity
  8
DEFPOINTS
 62
     0
100
AcDbPoint
 10
331.141239
 20
-324.3587360000092
 30
0.0
  0
ENDBLK
  5
193F
330
1933
100
AcDbEntity
  8
0
100
AcDbBlockEnd
  0
BLOCK
  5
194B
330
1940
100
AcDbEntity
  8
0
100
AcDbBlockBegin
  2
*D6
 70
     1
 71
     0
 10
0.0
 20
0.0
 30
0.0
  3
*D6
  1

  0
LINE
  5
1941
330
1940
100
AcDbEntity
  8
V0-VYPLNE
 62
     0
100
AcDbLine
 10
41.141239
 20
-277.166006
 30
0.0
 11
41.14123899999993
 21
-366.773881000001
 31
0.0
  0
LINE
  5
1942
330
1940
100
AcDbEntity
  8
V0-VYPLNE
 62
     0
100
AcDbLine
 10
371.141239
 20
-277.166006
 30
0.0
 11
371.141239
 21
-366.773881000001
 31
0.0
  0
LINE
  5
1943
330
1940
100
AcDbEntity
  8
V0-VYPLNE
 62
     0
100
AcDbLine
 10
56.14123899999993
 20
-365.523881000001
 30
0.0
 11
191.7840961428572
 21
-365.523881000001
 31
0.0
  0
LINE
  5
1944
330
1940
100
AcDbEntity
  8
V0-VYPLNE
 62
     0
100
AcDbLine
 10
356.141239
 20
-365.523881000001
 30
0.0
 11
220.4983818571429
 21
-365.523881000001
 31
0.0
  0
INSERT
  5
1945
330
1940
100
AcDbEntity
  8
V0-VYPLNE
 62
     0
100
AcDbBlockReference
  2
_OPEN
 10
41.14123899999993
 20
-365.523881000001
 30
0.0
 41
15.0
 42
15.0
 43
15.0
 50
180.0
  0
INSERT
  5
1946
330
1940
100
AcDbEntity
  8
V0-VYPLNE
 62
     0
100
AcDbBlockReference
  2
_OPEN
 10
371.141239
 20
-365.523881000001
 30
0.0
 41
15.0
 42
15.0
 43
15.0
  0
MTEXT
  5
1947
330
1940
100
AcDbEntity
  8
V0-VYPLNE
 62
     0
100
AcDbMText
 10
206.141239
 20
-365.523881
 30
0.0
 40
10.0
 41
0.0
 71
     5
 72
     1
  1
\A1;330
  7
ED20
  0
POINT
  5
1948
330
1940
100
AcDbEntity
  8
DEFPOINTS
 62
     0
100
AcDbPoint
 10
41.141239
 20
-276.166006
 30
0.0
  0
POINT
  5
1949
330
1940
100
AcDbEntity
  8
DEFPOINTS
 62
     0
100
AcDbPoint
 10
371.141239
 20
-276.166006
 30
0.0
  0
POINT
  5
194A
330
1940
100
AcDbEntity
  8
DEFPOINTS
 62
     0
100
AcDbPoint
 10
371.141239
 20
-365.523881000001
 30
0.0
  0
ENDBLK
  5
194C
330
1940
100
AcDbEntity
  8
0
100
AcDbBlockEnd
  0
BLOCK
  5
1958
330
194D
100
AcDbEntity
  8
0
100
AcDbBlockBegin
  2
*D7
 70
     1
 71
     0
 10
0.0
 20
0.0
 30
0.0
  3
*D7
  1

  0
LINE
  5
194E
330
194D
100
AcDbEntity
  8
V0-VYPLNE
 62
     0
100
AcDbLine
 10
-11.358761
 20
-277.166006
 30
0.0
 11
-11.35876099999996
 21
-416.7601250000007
 31
0.0
  0
LINE
  5
194F
330
194D
100
AcDbEntity
  8
V0-VYPLNE
 62
     0
100
AcDbLine
 10
423.641239
 20
-277.166006
 30
0.0
 11
423.641239
 21
-416.7601250000007
 31
0.0
  0
LINE
  5
1950
330
194D
100
AcDbEntity
  8
V0-VYPLNE
 62
     0
100
AcDbLine
 10
3.641239000000041
 20
-415.5101250000007
 30
0.0
 11
191.7840961428572
 21
-415.5101250000007
 31
0.0
  0
LINE
  5
1951
330
194D
100
AcDbEntity
  8
V0-VYPLNE
 62
     0
100
AcDbLine
 10
408.641239
 20
-415.5101250000007
 30
0.0
 11
220.4983818571429
 21
-415.5101250000007
 31
0.0
  0
INSERT
  5
1952
330
194D
100
AcDbEntity
  8
V0-VYPLNE
 62
     0
100
AcDbBlockReference
  2
_OPEN
 10
-11.35876099999996
 20
-415.5101250000007
 30
0.0
 41
15.0
 42
15.0
 43
15.0
 50
180.0
  0
INSERT
  5
1953
330
194D
100
AcDbEntity
  8
V0-VYPLNE
 62
     0
100
AcDbBlockReference
  2
_OPEN
 10
423.641239
 20
-415.5101250000007
 30
0.0
 41
15.0
 42
15.0
 43
15.0
  0
MTEXT
  5
1954
330
194D
100
AcDbEntity
  8
V0-VYPLNE
 62
     0
100
AcDbMText
 10
206.141239
 20
-415.510125
 30
0.0
 40
10.0
 41
0.0
 71
     5
 72
     1
  1
\A1;435
  7
ED20
  0
POINT
  5
1955
330
194D
100
AcDbEntity
  8
DEFPOINTS
 62
     0
100
AcDbPoint
 10
-11.358761
 20
-276.166006
 30
0.0
  0
POINT
  5
1956
330
194D
100
AcDbEntity
  8
DEFPOINTS
 62
     0
100
AcDbPoint
 10
423.641239
 20
-276.166006
 30
0.0
  0
POINT
  5
1957
330
194D
100
AcDbEntity
  8
DEFPOINTS
 62
     0
100
AcDbPoint
 10
423.641239
 20
-415.5101250000007
 30
0.0
  0
ENDBLK
  5
1959
330
194D
100
AcDbEntity
  8
0
100
AcDbBlockEnd
  0
BLOCK
  5
1964
330
195A
100
AcDbEntity
  8
0
100
AcDbBlockBegin
  2
*D8
 70
     1
 71
     0
 10
0.0
 20
0.0
 30
0.0
  3
*D8
  1

  0
LINE
  5
195B
330
195A
100
AcDbEntity
  8
V0-VYPLNE
 62
     0
100
AcDbLine
 10
371.641239
 20
127.833994
 30
0.0
 11
532.6335289999844
 21
127.833994
 31
0.0
  0
LINE
  5
195C
330
195A
100
AcDbEntity
  8
V0-VYPLNE
 62
     0
100
AcDbLine
 10
424.641239
 20
-276.166006
 30
0.0
 11
532.6335289999844
 21
-276.166006
 31
0.0
  0
LINE
  5
195D
330
195A
100
AcDbEntity
  8
V0-VYPLNE
 62
     0
100
AcDbLine
 10
531.3835289999844
 20
112.8339940000001
 30
0.0
 11
531.3835289999844
 21
-261.1660059999999
 31
0.0
  0
INSERT
  5
195E
330
195A
100
AcDbEntity
  8
V0-VYPLNE
 62
     0
100
AcDbBlockReference
  2
_OPEN
 10
531.3835289999844
 20
127.8339940000001
 30
0.0
 41
15.0
 42
15.0
 43
15.0
 50
90.0
  0
INSERT
  5
195F
330
195A
100
AcDbEntity
  8
V0-VYPLNE
 62
     0
100
AcDbBlockReference
  2
_OPEN
 10
531.3835289999844
 20
-276.1660059999999
 30
0.0
 41
15.0
 42
15.0
 43
15.0
 50
270.0
  0
MTEXT
  5
1960
330
195A
100
AcDbEntity
  8
V0-VYPLNE
 62
     0
100
AcDbMText
 10
524.8835289999844
 20
-74.16600599999998
 30
0.0
 40
10.0
 41
0.0
 71
     5
 72
     1
  1
\A1;404
  7
ED20
 11
0.0
 21
1.0
 31
0.0
  0
POINT
  5
1961
330
195A
100
AcDbEntity
  8
DEFPOINTS
 62
     0
100
AcDbPoint
 10
370.641239
 20
127.833994
 30
0.0
  0
POINT
  5
1962
330
195A
100
AcDbEntity
  8
DEFPOINTS
 62
     0
100
AcDbPoint
 10
423.641239
 20
-276.166006
 30
0.0
  0
POINT
  5
1963
330
195A
100
AcDbEntity
  8
DEFPOINTS
 62
     0
100
AcDbPoint
 10
531.3835289999844
 20
-276.166006
 30
0.0
  0
ENDBLK
  5
1965
330
195A
100
AcDbEntity
  8
0
100
AcDbBlockEnd
  0
BLOCK
  5
1970
330
1966
100
AcDbEntity
  8
0
100
AcDbBlockBegin
  2
*D9
 70
     1
 71
     0
 10
0.0
 20
0.0
 30
0.0
  3
*D9
  1

  0
LINE
  5
1967
330
1966
100
AcDbEntity
  8
V0-VYPLNE
 62
     0
100
AcDbLine
 10
-71.858761
 20
109.833994
 30
0.0
 11
-71.85876100000002
 21
164.2174200000009
 31
0.0
  0
LINE
  5
1968
330
1966
100
AcDbEntity
  8
V0-VYPLNE
 62
     0
100
AcDbLine
 10
484.141239
 20
109.833994
 30
0.0
 11
484.141239
 21
164.2174200000009
 31
0.0
  0
LINE
  5
1969
330
1966
100
AcDbEntity
  8
V0-VYPLNE
 62
     0
100
AcDbLine
 10
-56.85876100000002
 20
162.9674200000009
 30
0.0
 11
469.141239
 21
162.9674200000009
 31
0.0
  0
INSERT
  5
196A
330
1966
100
AcDbEntity
  8
V0-VYPLNE
 62
     0
100
AcDbBlockReference
  2
_OPEN
 10
-71.85876100000002
 20
162.9674200000009
 30
0.0
 41
15.0
 42
15.0
 43
15.0
 50
180.0
  0
INSERT
  5
196B
330
1966
100
AcDbEntity
  8
V0-VYPLNE
 62
     0
100
AcDbBlockReference
  2
_OPEN
 10
484.141239
 20
162.9674200000009
 30
0.0
 41
15.0
 42
15.0
 43
15.0
 50
360.0
  0
MTEXT
  5
196C
330
1966
100
AcDbEntity
  8
V0-VYPLNE
 62
     0
100
AcDbMText
 10
206.141239
 20
169.4674200000009
 30
0.0
 40
10.0
 41
0.0
 71
     5
 72
     1
  1
%%c\A1;556
  7
ED20
  0
POINT
  5
196D
330
1966
100
AcDbEntity
  8
DEFPOINTS
 62
     0
100
AcDbPoint
 10
-71.858761
 20
108.833994
 30
0.0
  0
POINT
  5
196E
330
1966
100
AcDbEntity
  8
DEFPOINTS
 62
     0
100
AcDbPoint
 10
484.141239
 20
108.833994
 30
0.0
  0
POINT
  5
196F
330
1966
100
AcDbEntity
  8
DEFPOINTS
 62
     0
100
AcDbPoint
 10
484.141239
 20
162.9674200000009
 30
0.0
  0
ENDBLK
  5
1971
330
1966
100
AcDbEntity
  8
0
100
AcDbBlockEnd
  0
ENDSEC
  0
SECTION
  2
ENTITIES
  0
LINE
  5
1127
330
1900
100
AcDbEntity
  8
V0-VYPLNE
  6
DASHDOT
 62
    63
100
AcDbLine
 10
210.886013
 20
-415.758355
 30
0.0
 11
210.886013
 21
-901.724889
 31
0.0
  0
CIRCLE
  5
11B0
330
1900
100
AcDbEntity
  8
V0-VYPLNE
  6
DASHED
 62
    56
100
AcDbCircle
 10
376.014053
 20
-571.645497
 30
0.0
 40
4.717944
  0
LINE
  5
11B1
330
1900
100
AcDbEntity
  8
V0-VYPLNE
 62
    63
100
AcDbLine
 10
376.014053
 20
-591.865257
 30
0.0
 11
376.014053
 21
-551.425737
 31
0.0
  0
LINE
  5
11BE
330
1900
100
AcDbEntity
  8
V0-VYPLNE
100
AcDbLine
 10
41.141239
 20
-286.166006
 30
0.0
 11
41.141239
 21
-247.953346
 31
0.0
  0
LINE
  5
11BF
330
1900
100
AcDbEntity
  8
V0-VYPLNE
100
AcDbLine
 10
371.141239
 20
-286.166006
 30
0.0
 11
371.141239
 21
-250.005887
 31
0.0
  0
POINT
  5
12BC
330
1900
100
AcDbEntity
  8
V0-VYPLNE
  6
CONTINUOUS
 62
    41
100
AcDbPoint
 10
210.886013
 20
-736.773537
 30
0.0
  0
POINT
  5
12BD
330
1900
100
AcDbEntity
  8
V0-VYPLNE
  6
CONTINUOUS
 62
    41
100
AcDbPoint
 10
206.141239
 20
-276.166006
 30
0.0
  0
LINE
  5
13BB
330
1900
100
AcDbEntity
  8
V0-VYPLNE
  6
DASHDOT
 62
    63
100
AcDbLine
 10
-104.178049
 20
-736.773537
 30
0.0
 11
537.297776
 21
-736.773537
 31
0.0
  0
LINE
  5
13C2
330
1900
100
AcDbEntity
  8
V0-VYPLNE
 62
    63
100
AcDbLine
 10
396.233813
 20
-571.645497
 30
0.0
 11
355.794293
 21
-571.645497
 31
0.0
  0
LINE
  5
13C5
330
1900
100
AcDbEntity
  8
V0-VYPLNE
 62
    63
100
AcDbLine
 10
65.977733
 20
-571.645497
 30
0.0
 11
25.538213
 21
-571.645497
 31
0.0
  0
LINE
  5
13C6
330
1900
100
AcDbEntity
  8
V0-VYPLNE
 62
    63
100
AcDbLine
 10
45.757973
 20
-551.425737
 30
0.0
 11
45.757973
 21
-591.865257
 31
0.0
  0
CIRCLE
  5
13C7
330
1900
100
AcDbEntity
  8
V0-VYPLNE
  6
DASHED
 62
    56
100
AcDbCircle
 10
45.757973
 20
-571.645497
 30
0.0
 40
4.717944
  0
LINE
  5
13C8
330
1900
100
AcDbEntity
  8
V0-VYPLNE
 62
    63
100
AcDbLine
 10
45.757973
 20
-881.681817
 30
0.0
 11
45.757973
 21
-922.121337
 31
0.0
  0
LINE
  5
13C9
330
1900
100
AcDbEntity
  8
V0-VYPLNE
 62
    63
100
AcDbLine
 10
25.538213
 20
-901.901577
 30
0.0
 11
65.977733
 21
-901.901577
 31
0.0
  0
CIRCLE
  5
13CA
330
1900
100
AcDbEntity
  8
V0-VYPLNE
  6
DASHED
 62
    56
100
AcDbCircle
 10
45.757973
 20
-901.901577
 30
0.0
 40
4.717944
  0
LINE
  5
13CB
330
1900
100
AcDbEntity
  8
V0-VYPLNE
 62
    63
100
AcDbLine
 10
355.794293
 20
-901.901577
 30
0.0
 11
396.233813
 21
-901.901577
 31
0.0
  0
LINE
  5
13CC
330
1900
100
AcDbEntity
  8
V0-VYPLNE
 62
    63
100
AcDbLine
 10
376.014053
 20
-922.121337
 30
0.0
 11
376.014053
 21
-881.681817
 31
0.0
  0
CIRCLE
  5
13CD
330
1900
100
AcDbEntity
  8
V0-VYPLNE
  6
DASHED
 62
    56
100
AcDbCircle
 10
376.014053
 20
-901.901577
 30
0.0
 40
4.717944
  0
LINE
  5
13CE
330
1900
100
AcDbEntity
  8
V0-VYPLNE
  6
DASHED
 62
    52
100
AcDbLine
 10
430.666013
 20
-516.993537
 30
0.0
 11
-8.893986999999981
 21
-516.993537
 31
0.0
  0
LINE
  5
13CF
330
1900
100
AcDbEntity
  8
V0-VYPLNE
  6
DASHED
 62
    52
100
AcDbLine
 10
-8.893986999999999
 20
-516.993537
 30
0.0
 11
-8.893986999999999
 21
-956.553537
 31
0.0
  0
LINE
  5
13D0
330
1900
100
AcDbEntity
  8
V0-VYPLNE
  6
DASHED
 62
    52
100
AcDbLine
 10
-8.893986999999999
 20
-956.553537
 30
0.0
 11
430.666013
 21
-956.553537
 31
0.0
  0
LINE
  5
13D1
330
1900
100
AcDbEntity
  8
V0-VYPLNE
  6
DASHED
 62
    52
100
AcDbLine
 10
430.666013
 20
-956.553537
 30
0.0
 11
430.666013
 21
-516.993537
 31
0.0
  0
LINE
  5
13D2
330
1900
100
AcDbEntity
  8
V0-OBRYS
  6
CONTINUOUS
 62
    90
100
AcDbLine
 10
-11.358761
 20
-276.166006
 30
0.0
 11
423.641239
 21
-276.166006
 31
0.0
  0
LINE
  5
13D3
330
1900
100
AcDbEntity
  8
V0-OBRYS
  6
CONTINUOUS
 62
    90
100
AcDbLine
 10
423.641239
 20
-276.166006
 30
0.0
 11
423.641239
 21
-261.166006
 31
0.0
  0
LINE
  5
13D4
330
1900
100
AcDbEntity
  8
V0-OBRYS
  6
CONTINUOUS
 62
    90
100
AcDbLine
 10
423.641239
 20
-261.166006
 30
0.0
 11
-11.35876100000002
 21
-261.166006
 31
0.0
  0
LINE
  5
13D5
330
1900
100
AcDbEntity
  8
V0-OBRYS
  6
CONTINUOUS
 62
    90
100
AcDbLine
 10
-11.358761
 20
-261.166006
 30
0.0
 11
-11.358761
 21
-276.166006
 31
0.0
  0
LINE
  5
13D6
330
1900
100
AcDbEntity
  8
V0-OBRYS
  6
CONTINUOUS
 62
    90
100
AcDbLine
 10
3.641239
 20
-261.166006
 30
0.0
 11
3.641239
 21
-258.166006
 31
0.0
  0
LINE
  5
13D7
330
1900
100
AcDbEntity
  8
V0-OBRYS
  6
CONTINUOUS
 62
    90
100
AcDbLine
 10
3.641239
 20
-258.166006
 30
0.0
 11
408.641239
 21
-258.166006
 31
0.0
  0
LINE
  5
13D8
330
1900
100
AcDbEntity
  8
V0-OBRYS
  6
CONTINUOUS
 62
    90
100
AcDbLine
 10
408.641239
 20
-258.166006
 30
0.0
 11
408.641239
 21
-261.166006
 31
0.0
  0
LINE
  5
13EA
330
1900
100
AcDbEntity
  8
V0-OBRYS
  6
CONTINUOUS
 62
    90
100
AcDbLine
 10
331.141239
 20
-256.166006
 30
0.0
 11
331.141239
 21
-276.166006
 31
0.0
  0
LINE
  5
1456
330
1900
100
AcDbEntity
  8
V0-OBRYS
  6
CONTINUOUS
 62
    90
100
AcDbLine
 10
81.141239
 20
-256.166006
 30
0.0
 11
81.141239
 21
-276.166006
 31
0.0
  0
INSERT
  5
145C
330
1900
100
AcDbEntity
  8
V0-VYPLNE
  6
CONTINUOUS
 62
    52
100
AcDbBlockReference
  2
A10_100
 10
1091.344077
 20
-456.786598
 30
0.0
  0
DIMENSION
  5
1469
330
1900
100
AcDbEntity
  8
V0-VYPLNE
  6
CONTINUOUS
 62
    41
100
AcDbDimension
  2
*D5
 10
331.141239
 20
-324.3587360000092
 30
0.0
 11
206.141239
 21
-324.358736
 31
0.0
 70
   160
  1
%%c<>
  3
ED10
100
AcDbAlignedDimension
 13
81.141239
 23
-276.166006
 33
0.0
 14
331.141239
 24
-276.166006
 34
0.0
100
AcDbRotatedDimension
1001
ACAD
1000
DSTYLE
1002
{
1070
    40
1040
1.0
1002
}
  0
DIMENSION
  5
1476
330
1900
100
AcDbEntity
  8
V0-VYPLNE
  6
CONTINUOUS
 62
    41
100
AcDbDimension
  2
*D6
 10
371.141239
 20
-365.523881000001
 30
0.0
 11
206.141239
 21
-365.523881
 31
0.0
 70
   160
  3
ED10
100
AcDbAlignedDimension
 13
41.141239
 23
-276.166006
 33
0.0
 14
371.141239
 24
-276.166006
 34
0.0
100
AcDbRotatedDimension
1001
ACAD
1000
DSTYLE
1002
{
1070
    40
1040
1.0
1002
}
  0
DIMENSION
  5
1483
330
1900
100
AcDbEntity
  8
V0-VYPLNE
  6
CONTINUOUS
 62
    41
100
AcDbDimension
  2
*D7
 10
423.641239
 20
-415.5101250000007
 30
0.0
 11
206.141239
 21
-415.510125
 31
0.0
 70
   160
  3
ED10
100
AcDbAlignedDimension
 13
-11.358761
 23
-276.166006
 33
0.0
 14
423.641239
 24
-276.166006
 34
0.0
100
AcDbRotatedDimension
1001
ACAD
1000
DSTYLE
1002
{
1070
    40
1040
1.0
1002
}
  0
LINE
  5
14A6
330
1900
100
AcDbEntity
  8
V0-VYPLNE
  6
CONTINUOUS
 62
    41
100
AcDbLine
 10
148.752987
 20
-410.128269
 30
0.0
 11
164.444746
 21
-382.155026
 31
0.0
  0
LWPOLYLINE
  5
14A7
330
1900
100
AcDbEntity
  8
V0-VYPLNE
  6
CONTINUOUS
 62
    41
100
AcDbPolyline
 90
        4
 70
     1
 43
0.0
 10
148.869965
 20
-404.434276
 10
165.557222
 20
-404.434276
 10
165.557222
 20
-387.762387
 10
148.869965
 20
-387.762387
  0
LWPOLYLINE
  5
14A8
330
1900
100
AcDbEntity
  8
V0-VYPLNE
  6
CONTINUOUS
 62
    41
100
AcDbPolyline
 90
        4
 70
     1
 43
0.0
 10
155.128548
 20
-357.346401
 10
171.815805
 20
-357.346401
 10
171.815805
 20
-340.674513
 10
155.128548
 20
-340.674513
  0
LINE
  5
14A9
330
1900
100
AcDbEntity
  8
V0-VYPLNE
  6
CONTINUOUS
 62
    41
100
AcDbLine
 10
155.01157
 20
-363.040394
 30
0.0
 11
170.70333
 21
-335.067152
 31
0.0
  0
LINE
  5
14B0
330
1900
100
AcDbEntity
  8
V0-OBRYS
  6
CONTINUOUS
 62
    90
100
AcDbLine
 10
206.141239
 20
127.833994
 30
0.0
 11
370.641239
 21
127.833994
 31
0.0
  0
LINE
  5
14B1
330
1900
100
AcDbEntity
  8
V0-OBRYS
  6
CONTINUOUS
 62
    90
100
AcDbLine
 10
145.240984
 20
136.626723
 30
0.0
 11
145.240984
 21
136.626723
 31
0.0
  0
LINE
  5
14B2
330
1900
100
AcDbEntity
  8
V0-OBRYS
  6
CONTINUOUS
 62
    90
100
AcDbLine
 10
484.141239
 20
30.049222
 30
0.0
 11
484.141239
 21
108.833994
 31
0.0
  0
LINE
  5
14B3
330
1900
100
AcDbEntity
  8
V0-OBRYS
  6
CONTINUOUS
 62
    90
100
AcDbLine
 10
206.141239
 20
108.833994
 30
0.0
 11
484.141239
 21
108.833994
 31
0.0
  0
LINE
  5
14B4
330
1900
100
AcDbEntity
  8
V0-VYPLNE
100
AcDbLine
 10
206.141239
 20
127.833994
 30
0.0
 11
206.141239
 21
-309.929383
 31
0.0
  0
ARC
  5
14B6
330
1900
100
AcDbEntity
  8
V0-OBRYS
  6
CONTINUOUS
 62
    90
100
AcDbCircle
 10
-175.958452
 20
155.145715
 30
0.0
 40
671.848743
100
AcDbArc
 50
322.034587
 51
349.269048
  0
LINE
  5
14B7
330
1900
100
AcDbEntity
  8
V0-OBRYS
  6
CONTINUOUS
 62
    90
100
AcDbLine
 10
378.641239
 20
119.833994
 30
0.0
 11
378.641239
 21
108.833994
 31
0.0
  0
ARC
  5
14B9
330
1900
100
AcDbEntity
  8
V0-OBRYS
  6
CONTINUOUS
 62
    90
100
AcDbCircle
 10
370.641239
 20
119.833994
 30
0.0
 40
8.0
100
AcDbArc
 50
0.0
 51
90.0
  0
LINE
  5
14BA
330
1900
100
AcDbEntity
  8
V0-OBRYS
  6
CONTINUOUS
 62
    90
100
AcDbLine
 10
206.141239
 20
108.833994
 30
0.0
 11
-71.85876099999999
 21
108.833994
 31
0.0
  0
ARC
  5
14BB
330
1900
100
AcDbEntity
  8
V0-OBRYS
  6
CONTINUOUS
 62
    90
100
AcDbCircle
 10
588.2409290000001
 20
155.145715
 30
0.0
 40
671.848743
100
AcDbArc
 50
190.730952
 51
217.965413
  0
LINE
  5
14BC
330
1900
100
AcDbEntity
  8
V0-OBRYS
  6
CONTINUOUS
 62
    90
100
AcDbLine
 10
206.141239
 20
127.833994
 30
0.0
 11
41.64123900000001
 21
127.833994
 31
0.0
  0
ARC
  5
14BD
330
1900
100
AcDbEntity
  8
V0-OBRYS
  6
CONTINUOUS
 62
    90
100
AcDbCircle
 10
41.641239
 20
119.833994
 30
0.0
 40
8.0
100
AcDbArc
 50
90.0
 51
180.0
  0
LINE
  5
14BE
330
1900
100
AcDbEntity
  8
V0-OBRYS
  6
CONTINUOUS
 62
    90
100
AcDbLine
 10
33.641239
 20
119.833994
 30
0.0
 11
33.641239
 21
108.833994
 31
0.0
  0
LINE
  5
14BF
330
1900
100
AcDbEntity
  8
V0-OBRYS
  6
CONTINUOUS
 62
    90
100
AcDbLine
 10
-71.858761
 20
30.049222
 30
0.0
 11
-71.858761
 21
108.833994
 31
0.0
  0
DIMENSION
  5
14CC
330
1900
100
AcDbEntity
  8
V0-VYPLNE
  6
CONTINUOUS
 62
    41
100
AcDbDimension
  2
*D8
 10
531.3835289999844
 20
-276.166006
 30
0.0
 11
524.8835289999844
 21
-74.16600599999998
 31
0.0
 70
    32
  3
ED10
100
AcDbAlignedDimension
 13
370.641239
 23
127.833994
 33
0.0
 14
423.641239
 24
-276.166006
 34
0.0
 50
90.0
100
AcDbRotatedDimension
1001
ACAD
1000
DSTYLE
1002
{
1070
    40
1040
1.0
1002
}
  0
DIMENSION
  5
14E4
330
1900
100
AcDbEntity
  8
V0-VYPLNE
  6
CONTINUOUS
 62
    41
100
AcDbDimension
  2
*D9
 10
484.141239
 20
162.9674200000009
 30
0.0
 11
206.141239
 21
169.4674200000009
 31
0.0
 70
    32
  1
%%c<>
  3
ED10
100
AcDbAlignedDimension
 13
-71.858761
 23
108.833994
 33
0.0
 14
484.141239
 24
108.833994
 34
0.0
100
AcDbRotatedDimension
1001
ACAD
1000
DSTYLE
1002
{
1070
    40
1040
1.0
1002
}
  0
CIRCLE
  5
14F0
330
1900
100
AcDbEntity
  8
V0-OBRYS
  6
CONTINUOUS
 62
    90
100
AcDbCircle
 10
210.886013
 20
-736.773537
 30
0.0
 40
277.86
  0
CIRCLE
  5
14F1
330
1900
100
AcDbEntity
  8
V0-OBRYS
  6
CONTINUOUS
 62
    90
100
AcDbCircle
 10
210.886013
 20
-736.773537
 30
0.0
 40
171.390473
  0
LINE
  5
14F2
330
1900
100
AcDbEntity
  8
V0-OBRYS
  6
CONTINUOUS
 62
    90
100
AcDbLine
 10
372.066126
 20
-678.501199
 30
0.0
 11
483.947495
 21
-678.501199
 31
0.0
  0
LINE
  5
14F3
330
1900
100
AcDbEntity
  8
V0-OBRYS
  6
CONTINUOUS
 62
    90
100
AcDbLine
 10
372.066126
 20
-795.045876
 30
0.0
 11
483.947495
 21
-795.045876
 31
0.0
  0
LINE
  5
152A
330
1900
100
AcDbEntity
  8
V0-OBRYS
  6
CONTINUOUS
 62
    90
100
AcDbLine
 10
484.194475
 20
97.944084
 30
0.0
 11
487.437953
 21
97.944084
 31
0.0
  0
LINE
  5
152B
330
1900
100
AcDbEntity
  8
V0-OBRYS
  6
CONTINUOUS
 62
    90
100
AcDbLine
 10
487.437953
 20
97.944084
 30
0.0
 11
487.437953
 21
51.188428
 31
0.0
  0
LINE
  5
152C
330
1900
100
AcDbEntity
  8
V0-OBRYS
  6
CONTINUOUS
 62
    90
100
AcDbLine
 10
487.437953
 20
51.188428
 30
0.0
 11
484.194475
 21
51.188428
 31
0.0
  0
LINE
  5
16B4
330
1900
100
AcDbEntity
  8
V0-OBRYS
  6
CONTINUOUS
 62
    90
100
AcDbLine
 10
888.935333
 20
108.833994
 30
0.0
 11
1166.935333
 21
108.833994
 31
0.0
  0
ARC
  5
16B5
330
1900
100
AcDbEntity
  8
V0-OBRYS
  6
CONTINUOUS
 62
    90
100
AcDbCircle
 10
506.835643
 20
155.145715
 30
0.0
 40
671.848743
100
AcDbArc
 50
322.034587
 51
349.269048
  0
LINE
  5
16B6
330
1900
100
AcDbEntity
  8
V0-OBRYS
  6
CONTINUOUS
 62
    90
100
AcDbLine
 10
888.935333
 20
108.833994
 30
0.0
 11
610.935333
 21
108.833994
 31
0.0
  0
LINE
  5
16B7
330
1900
100
AcDbEntity
  8
V0-OBRYS
  6
CONTINUOUS
 62
    90
100
AcDbLine
 10
686.435333
 20
-258.166006
 30
0.0
 11
1091.435333
 21
-258.166006
 31
0.0
  0
LINE
  5
16B8
330
1900
100
AcDbEntity
  8
V0-OBRYS
  6
CONTINUOUS
 62
    90
100
AcDbLine
 10
1106.435333
 20
-261.166006
 30
0.0
 11
671.435333
 21
-261.166006
 31
0.0
  0
LINE
  5
16B9
330
1900
100
AcDbEntity
  8
V0-OBRYS
  6
CONTINUOUS
 62
    90
100
AcDbLine
 10
671.435333
 20
-276.166006
 30
0.0
 11
1106.435333
 21
-276.166006
 31
0.0
  0
LINE
  5
16BA
330
1900
100
AcDbEntity
  8
V0-OBRYS
  6
CONTINUOUS
 62
    90
100
AcDbLine
 10
888.935333
 20
127.833994
 30
0.0
 11
724.435333
 21
127.833994
 31
0.0
  0
LINE
  5
16BB
330
1900
100
AcDbEntity
  8
V0-OBRYS
  6
CONTINUOUS
 62
    90
100
AcDbLine
 10
610.935333
 20
30.049222
 30
0.0
 11
610.935333
 21
108.833994
 31
0.0
  0
ARC
  5
16BC
330
1900
100
AcDbEntity
  8
V0-OBRYS
  6
CONTINUOUS
 62
    90
100
AcDbCircle
 10
1271.035024
 20
155.145715
 30
0.0
 40
671.848743
100
AcDbArc
 50
190.730952
 51
217.965413
  0
LINE
  5
16BD
330
1900
100
AcDbEntity
  8
V0-OBRYS
  6
CONTINUOUS
 62
    90
100
AcDbLine
 10
671.435333
 20
-261.166006
 30
0.0
 11
671.435333
 21
-276.166006
 31
0.0
  0
LINE
  5
16BE
330
1900
100
AcDbEntity
  8
V0-OBRYS
  6
CONTINUOUS
 62
    90
100
AcDbLine
 10
686.435333
 20
-261.166006
 30
0.0
 11
686.435333
 21
-258.166006
 31
0.0
  0
LINE
  5
16BF
330
1900
100
AcDbEntity
  8
V0-VYPLNE
100
AcDbLine
 10
723.935333
 20
-286.166006
 30
0.0
 11
723.935333
 21
-247.953346
 31
0.0
  0
ARC
  5
16C0
330
1900
100
AcDbEntity
  8
V0-OBRYS
  6
CONTINUOUS
 62
    90
100
AcDbCircle
 10
724.435333
 20
119.833994
 30
0.0
 40
8.0
100
AcDbArc
 50
90.0
 51
180.0
  0
LINE
  5
16C1
330
1900
100
AcDbEntity
  8
V0-OBRYS
  6
CONTINUOUS
 62
    90
100
AcDbLine
 10
716.435333
 20
119.833994
 30
0.0
 11
716.435333
 21
108.833994
 31
0.0
  0
LINE
  5
16C3
330
1900
100
AcDbEntity
  8
V0-OBRYS
  6
CONTINUOUS
 62
    90
100
AcDbLine
 10
763.935333
 20
-256.166006
 30
0.0
 11
763.935333
 21
-276.166006
 31
0.0
  0
POINT
  5
16C4
330
1900
100
AcDbEntity
  8
V0-VYPLNE
  6
CONTINUOUS
 62
    41
100
AcDbPoint
 10
888.935333
 20
-276.166006
 30
0.0
  0
LINE
  5
16C5
330
1900
100
AcDbEntity
  8
V0-OBRYS
  6
CONTINUOUS
 62
    90
100
AcDbLine
 10
1013.935333
 20
-256.166006
 30
0.0
 11
1013.935333
 21
-276.166006
 31
0.0
  0
LINE
  5
16C6
330
1900
100
AcDbEntity
  8
V0-VYPLNE
100
AcDbLine
 10
1053.935333
 20
-286.166006
 30
0.0
 11
1053.935333
 21
-250.005887
 31
0.0
  0
LINE
  5
16C7
330
1900
100
AcDbEntity
  8
V0-OBRYS
  6
CONTINUOUS
 62
    90
100
AcDbLine
 10
1106.435333
 20
-276.166006
 30
0.0
 11
1106.435333
 21
-261.166006
 31
0.0
  0
LINE
  5
16C8
330
1900
100
AcDbEntity
  8
V0-OBRYS
  6
CONTINUOUS
 62
    90
100
AcDbLine
 10
1091.435333
 20
-258.166006
 30
0.0
 11
1091.435333
 21
-261.166006
 31
0.0
  0
LINE
  5
16C9
330
1900
100
AcDbEntity
  8
V0-OBRYS
  6
CONTINUOUS
 62
    90
100
AcDbLine
 10
888.935333
 20
127.833994
 30
0.0
 11
1053.435333
 21
127.833994
 31
0.0
  0
LINE
  5
16CA
330
1900
100
AcDbEntity
  8
V0-OBRYS
  6
CONTINUOUS
 62
    90
100
AcDbLine
 10
828.035079
 20
136.626723
 30
0.0
 11
828.035079
 21
136.626723
 31
0.0
  0
LINE
  5
16CB
330
1900
100
AcDbEntity
  8
V0-OBRYS
  6
CONTINUOUS
 62
    90
100
AcDbLine
 10
1061.435333
 20
119.833994
 30
0.0
 11
1061.435333
 21
108.833994
 31
0.0
  0
ARC
  5
16CC
330
1900
100
AcDbEntity
  8
V0-OBRYS
  6
CONTINUOUS
 62
    90
100
AcDbCircle
 10
1053.435333
 20
119.833994
 30
0.0
 40
8.0
100
AcDbArc
 50
0.0
 51
90.0
  0
LINE
  5
16CD
330
1900
100
AcDbEntity
  8
V0-OBRYS
  6
CONTINUOUS
 62
    90
100
AcDbLine
 10
1166.935333
 20
30.049222
 30
0.0
 11
1166.935333
 21
108.833994
 31
0.0
  0
LINE
  5
16D1
330
1900
100
AcDbEntity
  8
V0-VYPLNE
100
AcDbLine
 10
888.935333
 20
127.833994
 30
0.0
 11
888.935333
 21
-309.929383
 31
0.0
  0
LINE
  5
18BF
330
1900
100
AcDbEntity
  8
V0-OBRYS
  6
CONTINUOUS
 62
    90
100
AcDbLine
 10
40.877392
 20
-516.993537
 30
0.0
 11
-8.893986999999996
 21
-516.993537
 31
0.0
  0
LINE
  5
18C0
330
1900
100
AcDbEntity
  8
V0-OBRYS
  6
CONTINUOUS
 62
    90
100
AcDbLine
 10
-8.893986999999999
 20
-516.993537
 30
0.0
 11
-8.893986999999999
 21
-566.764916
 31
0.0
  0
LINE
  5
18C1
330
1900
100
AcDbEntity
  8
V0-OBRYS
  6
CONTINUOUS
 62
    90
100
AcDbLine
 10
-8.893986999999999
 20
-906.782158
 30
0.0
 11
-8.893986999999999
 21
-956.553537
 31
0.0
  0
LINE
  5
18C2
330
1900
100
AcDbEntity
  8
V0-OBRYS
  6
CONTINUOUS
 62
    90
100
AcDbLine
 10
-8.893986999999999
 20
-956.553537
 30
0.0
 11
40.877392
 21
-956.553537
 31
0.0
  0
LINE
  5
18C3
330
1900
100
AcDbEntity
  8
V0-OBRYS
  6
CONTINUOUS
 62
    90
100
AcDbLine
 10
380.894634
 20
-956.553537
 30
0.0
 11
430.666013
 21
-956.553537
 31
0.0
  0
LINE
  5
18C4
330
1900
100
AcDbEntity
  8
V0-OBRYS
  6
CONTINUOUS
 62
    90
100
AcDbLine
 10
430.666013
 20
-956.553537
 30
0.0
 11
430.666013
 21
-906.782158
 31
0.0
  0
LINE
  5
18C5
330
1900
100
AcDbEntity
  8
V0-OBRYS
  6
CONTINUOUS
 62
    90
100
AcDbLine
 10
430.666013
 20
-566.764916
 30
0.0
 11
430.666013
 21
-516.993537
 31
0.0
  0
LINE
  5
18C6
330
1900
100
AcDbEntity
  8
V0-OBRYS
  6
CONTINUOUS
 62
    90
100
AcDbLine
 10
430.666013
 20
-516.993537
 30
0.0
 11
380.894634
 21
-516.993537
 31
0.0
  0
TEXT
  5
18D1
330
1900
100
AcDbEntity
  8
V0-NAZVY
  6
CONTINUOUS
100
AcDbText
 10
640.2868024411146
 20
-647.8318360000267
 30
0.0
 40
40.0
  1
CTVB/CTVT 200
  7
ED15
100
AcDbText
  0
LWPOLYLINE
  5
18D4
330
1900
100
AcDbEntity
  8
V0-VYPLNE
  6
CONTINUOUS
 62
    41
100
AcDbPolyline
 90
        3
 70
     0
 43
0.0
 10
41.141239
 20
-258.166006
 10
20.629531
 20
-226.140213
 10
-266.672241
 20
-226.140213
  0
TEXT
  5
18D9
330
1900
100
AcDbEntity
  8
V0-VYPLNE
  6
CONTINUOUS
 62
    41
100
AcDbText
 10
-362.2990404285715
 20
-224.63726
 30
0.0
 40
30.0
  1
4 OTVORY %%c 12
  7
ED15
100
AcDbText
  0
VIEWPORT
  5
1972
330
18FC
100
AcDbEntity
 67
     1
  8
0
 60
     1
100
AcDbViewport
 10
261.517699
 20
148.5
 30
0.0
 40
297.0
 41
297.0
 68
     0
 69
     1
1001
VD_INVISIBLE_NOT_FOR_READ
1000
VD_INVISIBLE_NOT_FOR_READ
1001
ACAD
1000
MVIEW
1002
{
1070
    16
1010
0.0
1020
0.0
1030
0.0
1010
0.0
1020
0.0
1030
1.0
1040
6.2831853071796
1040
297.0
1040
261.517699
1040
148.5
1040
0.0
1040
0.0
1040
0.0
1070
     0
1070
   100
1070
     0
1070
     1
1070
     0
1070
     0
1070
     0
1070
     0
1040
0.0
1040
0.0
1040
0.0
1040
1.0
1040
1.0
1040
0.0
1040
0.0
1070
     0
1002
{
1002
}
1002
}
  0
VIEWPORT
  5
1973
330
18FC
100
AcDbEntity
 67
     1
  8
0
 60
     1
100
AcDbViewport
 10
261.517699
 20
148.5
 30
0.0
 40
297.0
 41
297.0
 68
     0
 69
     2
1001
VD_INVISIBLE_NOT_FOR_READ
1000
VD_INVISIBLE_NOT_FOR_READ
1001
ACAD
1000
MVIEW
1002
{
1070
    16
1010
0.0
1020
0.0
1030
0.0
1010
0.0
1020
0.0
1030
1.0
1040
6.2831853071796
1040
297.0
1040
261.517699
1040
148.5
1040
0.0
1040
0.0
1040
0.0
1070
     0
1070
   100
1070
     0
1070
     1
1070
     0
1070
     0
1070
     0
1070
     0
1040
0.0
1040
0.0
1040
0.0
1040
1.0
1040
1.0
1040
0.0
1040
0.0
1070
     0
1002
{
1002
}
1002
}
  0
ENDSEC
  0
SECTION
  2
OBJECTS
  0
DICTIONARY
  5
18ED
330
0
100
AcDbDictionary
  3
ACAD_GROUP
350
18EE
  3
ACAD_LAYOUT
350
18FB
  3
ACAD_MLINESTYLE
350
18F8
  3
ACAD_PLOTSETTINGS
350
18FA
  3
ACDBHEADERROUNDTRIPXREC
350
1974
  3
VECTORDRAW_OBJECTS
350
1910
  0
DICTIONARY
  5
1994
330
190A
100
AcDbDictionary
280
     1
  3
ACAD_XREC_ROUNDTRIP
360
1995
  0
DICTIONARY
  5
18EE
102
{ACAD_REACTORS
330
18ED
102
}
330
18ED
100
AcDbDictionary
  0
DICTIONARY
  5
18FB
102
{ACAD_REACTORS
330
18ED
102
}
330
18ED
100
AcDbDictionary
  0
DICTIONARY
  5
18F8
102
{ACAD_REACTORS
330
18ED
102
}
330
18ED
100
AcDbDictionary
  3
STANDARD
350
18F9
  0
DICTIONARY
  5
18FA
102
{ACAD_REACTORS
330
18ED
102
}
330
18ED
100
AcDbDictionary
  0
DICTIONARY
  5
1974
102
{ACAD_REACTORS
330
18ED
102
}
330
18ED
100
AcDbDictionary
  3
CEPSNTYPE
350
197D
  3
DIMSTYLEDATA
350
1993
  3
FINGERPRINTGUID
350
197E
  3
HYPERLINKBASE
350
1977
  3
INSUNITS
350
197C
  3
LAYOUTDICT
350
1979
  3
LWETCUNION
350
197B
  3
PLOTSETDICT
350
197A
  3
PSVPSCALE
350
1980
  3
PUCSBASE
350
1983
  3
PUCSORGBACK
350
1989
  3
PUCSORGBOTTOM
350
1985
  3
PUCSORGFRONT
350
1988
  3
PUCSORGLEFT
350
1986
  3
PUCSORGRIGHT
350
1987
  3
PUCSORGTOP
350
1984
  3
PUCSORTHOREF
350
1981
  3
PUCSORTHOVIEW
350
1982
  3
STYLESHEET
350
1978
  3
TSTACKALIGN
350
1975
  3
TSTACKSIZE
350
1976
  3
UCSBASE
350
198C
  3
UCSORGBACK
350
1992
  3
UCSORGBOTTOM
350
198E
  3
UCSORGFRONT
350
1991
  3
UCSORGLEFT
350
198F
  3
UCSORGRIGHT
350
1990
  3
UCSORGTOP
350
198D
  3
UCSORTHOREF
350
198A
  3
UCSORTHOVIEW
350
198B
  3
VERSIONGUID
350
197F
  0
DICTIONARY
  5
1910
102
{ACAD_REACTORS
330
18ED
102
}
330
18ED
100
AcDbDictionary
  3
SERIALNO
350
1911
  0
XRECORD
  5
1995
102
{ACAD_REACTORS
330
1994
102
}
330
1994
100
AcDbXrecord
102
UCS
 74
     0
 71
     1
 10
0.0
 20
0.0
 30
0.0
 10
1.0
 20
0.0
 30
0.0
 10
0.0
 20
1.0
 30
0.0
146
0.0
 79
     0
102
VIEW
281
     0
  0
MLINESTYLE
  5
18F9
102
{ACAD_REACTORS
330
18F8
102
}
330
18F8
100
AcDbMlineStyle
  2
Standard
 70
     0
  3

 62
   256
 51
90.0
 52
90.0
 71
     2
 49
0.5
 62
   256
  6
BYLAYER
 49
-0.5
 62
   256
  6
BYLAYER
  0
XRECORD
  5
197D
102
{ACAD_REACTORS
330
1974
102
}
330
1974
100
AcDbXrecord
 90
        0
  0
XRECORD
  5
1993
102
{ACAD_REACTORS
330
1974
102
}
330
1974
100
AcDbXrecord
1000
DSTYLE
1002
{
1070
    41
 40
15.0
1070
   342
340
90
1070
   271
 70
     0
1070
    44
 40
1.25
1070
    42
 40
1.0
1070
   147
 40
1.5
1070
    77
 70
     1
1070
    73
 70
     0
1070
   174
 70
     1
1070
   172
 70
     1
1070
    74
 70
     0
1070
   340
340
331
1070
   140
 40
10.0
1070
   288
 70
     1
1002
}
  0
XRECORD
  5
197E
102
{ACAD_REACTORS
330
1974
102
}
330
1974
100
AcDbXrecord
  1
{FAEB1C30-E019-11D5-929B-00C0DF256EC4}
  0
XRECORD
  5
1977
102
{ACAD_REACTORS
330
1974
102
}
330
1974
100
AcDbXrecord
  1

  0
XRECORD
  5
197C
102
{ACAD_REACTORS
330
1974
102
}
330
1974
100
AcDbXrecord
 90
        1
  0
XRECORD
  5
1979
102
{ACAD_REACTORS
330
1974
102
}
330
1974
100
AcDbXrecord
340
18FB
  0
XRECORD
  5
197B
102
{ACAD_REACTORS
330
1974
102
}
330
1974
100
AcDbXrecord
 90
     2560
  0
XRECORD
  5
197A
102
{ACAD_REACTORS
330
1974
102
}
330
1974
100
AcDbXrecord
340
18FA
  0
XRECORD
  5
1980
102
{ACAD_REACTORS
330
1974
102
}
330
1974
100
AcDbXrecord
 40
0.0
  0
XRECORD
  5
1983
102
{ACAD_REACTORS
330
1974
102
}
330
1974
100
AcDbXrecord
340
0
  0
XRECORD
  5
1989
102
{ACAD_REACTORS
330
1974
102
}
330
1974
100
AcDbXrecord
 10
0.0
 20
0.0
 30
0.0
  0
XRECORD
  5
1985
102
{ACAD_REACTORS
330
1974
102
}
330
1974
100
AcDbXrecord
 10
0.0
 20
0.0
 30
0.0
  0
XRECORD
  5
1988
102
{ACAD_REACTORS
330
1974
102
}
330
1974
100
AcDbXrecord
 10
0.0
 20
0.0
 30
0.0
  0
XRECORD
  5
1986
102
{ACAD_REACTORS
330
1974
102
}
330
1974
100
AcDbXrecord
 10
0.0
 20
0.0
 30
0.0
  0
XRECORD
  5
1987
102
{ACAD_REACTORS
330
1974
102
}
330
1974
100
AcDbXrecord
 10
0.0
 20
0.0
 30
0.0
  0
XRECORD
  5
1984
102
{ACAD_REACTORS
330
1974
102
}
330
1974
100
AcDbXrecord
 10
0.0
 20
0.0
 30
0.0
  0
XRECORD
  5
1981
102
{ACAD_REACTORS
330
1974
102
}
330
1974
100
AcDbXrecord
340
0
  0
XRECORD
  5
1982
102
{ACAD_REACTORS
330
1974
102
}
330
1974
100
AcDbXrecord
 70
     0
  0
XRECORD
  5
1978
102
{ACAD_REACTORS
330
1974
102
}
330
1974
100
AcDbXrecord
  1

  0
XRECORD
  5
1975
102
{ACAD_REACTORS
330
1974
102
}
330
1974
100
AcDbXrecord
 90
        1
  0
XRECORD
  5
1976
102
{ACAD_REACTORS
330
1974
102
}
330
1974
100
AcDbXrecord
 90
       70
  0
XRECORD
  5
198C
102
{ACAD_REACTORS
330
1974
102
}
330
1974
100
AcDbXrecord
340
0
  0
XRECORD
  5
1992
102
{ACAD_REACTORS
330
1974
102
}
330
1974
100
AcDbXrecord
 10
0.0
 20
0.0
 30
0.0
  0
XRECORD
  5
198E
102
{ACAD_REACTORS
330
1974
102
}
330
1974
100
AcDbXrecord
 10
0.0
 20
0.0
 30
0.0
  0
XRECORD
  5
1991
102
{ACAD_REACTORS
330
1974
102
}
330
1974
100
AcDbXrecord
 10
0.0
 20
0.0
 30
0.0
  0
XRECORD
  5
198F
102
{ACAD_REACTORS
330
1974
102
}
330
1974
100
AcDbXrecord
 10
0.0
 20
0.0
 30
0.0
  0
XRECORD
  5
1990
102
{ACAD_REACTORS
330
1974
102
}
330
1974
100
AcDbXrecord
 10
0.0
 20
0.0
 30
0.0
  0
XRECORD
  5
198D
102
{ACAD_REACTORS
330
1974
102
}
330
1974
100
AcDbXrecord
 10
0.0
 20
0.0
 30
0.0
  0
XRECORD
  5
198A
102
{ACAD_REACTORS
330
1974
102
}
330
1974
100
AcDbXrecord
340
0
  0
XRECORD
  5
198B
102
{ACAD_REACTORS
330
1974
102
}
330
1974
100
AcDbXrecord
 70
     0
  0
XRECORD
  5
197F
102
{ACAD_REACTORS
330
1974
102
}
330
1974
100
AcDbXrecord
  1
{FAEB1C32-E019-11D5-929B-00C0DF256EC4}
  0
XRECORD
  5
1911
102
{ACAD_REACTORS
330
1910
102
}
330
1910
100
AcDbXrecord
1000
rInJVR9YY4Q8hfPWdUq5j5319
1070
     4
1070
     6
  0
ENDSEC
  0
EOF
